<?xml version="1.0" standalone="no"?>
<!DOCTYPE svg PUBLIC "-//W3C//DTD SVG 1.1//EN" "http://www.w3.org/Graphics/SVG/1.1/DTD/svg11.dtd" >
<svg xmlns="http://www.w3.org/2000/svg">
<metadata></metadata>
<defs>
<font id="castletligregular" horiz-adv-x="1024" >
<font-face units-per-em="2048" ascent="1700" descent="-348" />
<missing-glyph horiz-adv-x="495" />
<glyph horiz-adv-x="0" />
<glyph horiz-adv-x="495" />
<glyph unicode=" "  horiz-adv-x="495" />
<glyph unicode="&#x09;" horiz-adv-x="495" />
<glyph unicode="&#xa0;" horiz-adv-x="495" />
<glyph unicode="!" horiz-adv-x="483" d="M201 303l-29 1007q-2 40 -7 55h154q-5 -26 -6 -55l-30 -1007h-82zM241 136q42 0 69 -21.5t27 -53.5t-27 -53.5t-68 -21.5q-42 0 -69 21.5t-27 54.5q0 32 27 53t68 21z" />
<glyph unicode="&#x22;" horiz-adv-x="585" d="M252 1365l-23 -427h-69l-23 427h115zM449 1365l-24 -427h-68l-23 427h115z" />
<glyph unicode="#" horiz-adv-x="975" d="M889 537l-11 -79h-192l-64 -458h-102l64 458h-246l-64 -458h-103l65 458h-205l11 79h205l44 316h-204l11 79h204l61 433h103l-61 -433h246l60 433h103l-61 -433h191l-11 -79h-191l-44 -316h191zM640 853h-246l-45 -316h246z" />
<glyph unicode="$" horiz-adv-x="887" d="M421 1388v141h60v-141h30q121 0 254 -72l-35 -88q-128 88 -249 88v-545q175 -89 230 -139q120 -110 120 -267q0 -146 -99.5 -252.5t-250.5 -122.5v-165h-60v162q-26 -1 -36 -1q-157 0 -328 99l36 111q86 -76 160 -107.5t168 -30.5v600q-181 96 -248 156q-106 95 -106 230 q0 139 98 234t256 110zM421 1316q-89 -16 -138 -52q-94 -70 -94 -192q0 -80 50 -138.5t182 -132.5v515zM481 66q84 18 134 61q93 80 93 215q0 115 -86 195q-34 32 -141 92v-563z" />
<glyph unicode="%" horiz-adv-x="1502" d="M374 1383q66 0 125.5 -34t97.5 -93q72 -113 72 -269q0 -148 -73 -262q-37 -58 -96 -91t-126 -33q-138 0 -220 122q-72 109 -72 268q0 160 72 267q83 122 220 125zM374 1320q-78 0 -130 -79q-53 -80 -53 -241q0 -173 56 -263q46 -73 127 -73t126 73q60 100 60 249 q0 158 -60 256q-46 77 -126 78zM403 0l614 1365h82l-614 -1365h-82zM1125 764q66 0 125.5 -34t97.5 -93q72 -113 72 -269q0 -148 -73 -262q-36 -58 -95.5 -91t-126.5 -33q-138 0 -220 122q-72 109 -72 268q0 161 72 267q83 122 220 125zM1125 701q-78 0 -130 -79 q-53 -80 -53 -241q0 -174 56 -263q46 -73 127 -73t126 74q60 99 60 248q0 158 -60 256q-46 77 -126 78z" />
<glyph unicode="&#x26;" horiz-adv-x="1129" d="M835 164q-55 -50 -92 -79q-127 -103 -305 -103q-147 0 -238 86q-115 109 -115 276q0 126 75 227q38 49 84.5 80t202.5 109q-73 111 -93 158t-20 104q0 131 103 208q76 58 177 58q105 0 171 -63t66 -162q0 -132 -85 -208q-54 -48 -171 -95l297 -447q100 124 147 257 l60 -77q-55 -108 -173 -235l135 -203q31 -44 38 -55h-159zM480 704q-108 -48 -169 -104q-103 -92 -103 -244q0 -126 77 -209q73 -78 200 -78q94 0 161.5 31t154.5 115zM566 802q61 30 95 53q101 69 101 201q0 60 -29 99q-43 58 -117 58q-66 0 -113 -47.5t-47 -114.5 q0 -56 23 -108t87 -141z" />
<glyph unicode="'" horiz-adv-x="388" d="M252 1365l-23 -427h-69l-23 427h115z" />
<glyph unicode="(" horiz-adv-x="601" d="M359 1495l43 -31q-60 -155 -79 -212q-100 -298 -100 -589q0 -182 35.5 -339.5t143.5 -456.5l-43 -31q-102 198 -149 313q-114 279 -114 516q0 176 58.5 361t204.5 469z" />
<glyph unicode=")" horiz-adv-x="601" d="M242 1495q83 -161 147 -310q117 -271 117 -520q0 -180 -57 -359.5t-207 -469.5l-42 31q109 302 144 457.5t35 338.5q0 198 -36.5 361t-142.5 440z" />
<glyph unicode="*" horiz-adv-x="688" d="M131 939l-46 71l209 99l-209 95l46 78l186 -133l-14 230h83l-15 -230l189 133l44 -78l-208 -95l199 -112l-43 -65l-181 126l15 -228h-83l14 228z" />
<glyph unicode="+" horiz-adv-x="975" d="M452 647h-362v72h362v350h72v-350h361v-72h-361v-350h-72v350z" />
<glyph unicode="," horiz-adv-x="483" d="M219 150l118 -41l-191 -327l-77 27z" />
<glyph unicode="-" horiz-adv-x="454" d="M0 491l31 98h423l-30 -98h-424z" />
<glyph unicode="." horiz-adv-x="483" d="M241 136q42 0 69 -21.5t27 -53.5t-27 -53.5t-68 -21.5q-42 0 -69 21.5t-27 54.5q0 32 27 53t68 21z" />
<glyph unicode="/" horiz-adv-x="671" d="M-4 -229l518 1594h89l-518 -1594h-89z" />
<glyph unicode="0" horiz-adv-x="975" d="M486 1383q252 0 340 -226q32 -83 44 -182.5t12 -288.5q0 -206 -10.5 -298t-45.5 -180q-43 -111 -131 -168.5t-215 -57.5q-153 0 -249 99q-99 102 -126 307q-12 95 -12 311q0 190 13.5 289.5t49.5 181.5q48 107 128.5 159t201.5 54zM488 1315q-85 0 -155 -61 q-69 -61 -93 -173.5t-24 -375.5q0 -225 10 -323.5t41 -179.5q24 -62 83 -107q60 -45 138 -45q108 0 181 86q68 80 84 282q6 78 6 281q0 200 -10.5 298t-40.5 167q-29 69 -88 109.5t-132 41.5z" />
<glyph unicode="1" horiz-adv-x="975" d="M441 1246l-261 -122v47q0 23 -7 54l400 161q-5 -23 -5 -58v-1264q0 -30 6 -64h-139q6 34 6 64v1182z" />
<glyph unicode="2" horiz-adv-x="975" d="M119 102q178 178 301 348q244 338 244 593q0 122 -67 191.5t-184 69.5q-135 0 -238 -85l-17 96q128 68 272 68q148 0 243 -77q57 -46 90 -116t33 -143q0 -255 -351 -690q-76 -94 -232 -255h513q64 0 90 6v-108h-703q6 33 6 55v47z" />
<glyph unicode="3" horiz-adv-x="975" d="M146 185q39 -41 66 -60q83 -61 184 -61q115 0 181 83q71 91 71 233t-77.5 226t-209.5 84h-13h-16v83q27 -1 45 -1q88 0 140 40q45 35 72 100.5t27 141.5q0 115 -57 182t-155 67q-56 0 -97.5 -18t-95.5 -65l-7 110q100 53 218 53q160 0 244 -100q73 -86 73 -214 q0 -126 -69 -219q-33 -44 -75.5 -70t-123.5 -52q93 -19 161 -68q73 -53 105.5 -121t32.5 -170q0 -178 -111 -291q-95 -96 -253 -96q-153 0 -286 96z" />
<glyph unicode="4" horiz-adv-x="975" d="M592 434h-530v97q19 21 43 63l439 715q22 36 29 56h144q-5 -34 -5 -64v-779h96q39 0 64 9v-102q-46 5 -64 5h-96v-370q0 -34 5 -64h-131q6 34 6 64v370zM128 521h464v758z" />
<glyph unicode="5" horiz-adv-x="975" d="M138 52l28 114q100 -116 233 -116q131 0 203 101q75 106 75 271q0 129 -51 211q-57 93 -176 93q-98 0 -171 -67l-75 30q4 24 4 30l-1 58v501q0 43 -4 87h540v-92q-35 5 -67 5h-386v-516q87 50 188 50q156 0 242 -111q80 -104 80 -271q0 -209 -121 -336 q-106 -112 -284 -112q-140 0 -257 70z" />
<glyph unicode="6" horiz-adv-x="975" d="M251 755q124 168 286 168q130 0 217 -102q110 -128 110 -355q0 -124 -35 -228t-98 -168q-86 -88 -227 -88q-186 0 -284 155q-51 82 -73 184.5t-22 257.5q0 334 81 510q83 180 233 255q79 39 159 39q38 0 89 -11l28 -91q-64 23 -108 23q-118 0 -214 -108 q-62 -70 -91.5 -161.5t-50.5 -279.5zM250 660l-3 -104q0 -171 44 -317q56 -189 214 -189q55 0 101 28t72 77q63 122 63 317q0 142 -43 239q-27 60 -76 95t-106 35q-102 0 -182 -76q-34 -32 -67 -79z" />
<glyph unicode="7" horiz-adv-x="975" d="M755 1269h-532q-40 0 -79 -8v104h687v-88l-28 -70l-443 -1152q-15 -44 -20 -55h-142q4 10 26 55z" />
<glyph unicode="8" horiz-adv-x="975" d="M605 748q138 -47 198 -130t60 -227q0 -199 -106 -309q-96 -100 -269 -100t-269 100q-106 110 -106 307q0 145 60.5 229.5t197.5 129.5q-216 61 -216 297q0 155 90 246.5t242 91.5q147 0 233 -83q100 -96 100 -254q0 -238 -215 -298zM487 1315q-99 0 -154 -69t-55 -193 q0 -133 54 -205.5t152 -72.5q108 0 158 71q55 76 55 207q0 125 -54.5 193t-155.5 69zM488 693q-119 0 -180 -80q-69 -91 -69 -239t66 -237q57 -76 179 -76q129 0 187 76q66 88 66 238q0 151 -65 233.5t-184 84.5z" />
<glyph unicode="9" horiz-adv-x="975" d="M724 610q-124 -168 -287 -168q-129 0 -217 102q-109 128 -109 355q0 124 35 228t98 168q87 88 227 88q186 0 284 -156q51 -81 73 -184t22 -258q0 -333 -81 -509q-83 -180 -234 -255q-79 -39 -159 -39q-37 0 -88 10l-28 92q62 -23 107 -23q119 0 215 108q61 70 91 161.5 t51 279.5zM725 705l3 104q0 170 -44 317q-56 189 -214 189q-55 0 -101 -28t-71 -77q-64 -122 -64 -317q0 -142 43 -239q27 -60 76 -95t106 -35q102 0 182 76q34 32 66 79z" />
<glyph unicode=":" horiz-adv-x="483" d="M241 751q42 0 69 -21.5t27 -53.5q0 -33 -27 -54t-68 -21q-42 0 -69 21.5t-27 54.5q0 32 27 53t68 21zM241 136q42 0 69 -21.5t27 -53.5t-27 -53.5t-68 -21.5q-42 0 -69 21.5t-27 54.5q0 32 27 53t68 21z" />
<glyph unicode=";" horiz-adv-x="483" d="M208 150l118 -41l-191 -327l-77 27zM251 751q42 0 69 -21t27 -54q0 -32 -27 -53.5t-68 -21.5q-42 0 -69 21.5t-27 54.5q0 32 27 53t68 21z" />
<glyph unicode="&#x3c;" d="M955 1143v-121l-757 -339l757 -339v-122l-887 408v106z" />
<glyph unicode="=" horiz-adv-x="975" d="M90 756v72h795v-72h-795zM90 538v72h795v-72h-795z" />
<glyph unicode="&#x3e;" d="M69 1143l887 -407v-107l-887 -407v122l756 339l-756 339v121z" />
<glyph unicode="?" horiz-adv-x="714" d="M151 1210l-11 99q109 74 233 74q110 0 180 -65q71 -66 71 -166q0 -79 -48 -168t-170 -236q-88 -107 -116.5 -158t-28.5 -103q0 -51 37.5 -86t92.5 -35q59 0 129 58l11 -88q-74 -46 -149 -46q-102 0 -166 73q-53 60 -53 137q0 68 38.5 137t151.5 205q93 111 127 174 t34 123q0 73 -40.5 119.5t-104.5 46.5q-101 0 -218 -95zM349 136q42 0 69 -21.5t27 -53.5t-27 -53.5t-68 -21.5q-42 0 -69 21.5t-27 54.5q0 32 27 53t68 21z" />
<glyph unicode="@" horiz-adv-x="1495" d="M977 957l11 101h99q-8 -30 -11 -52l-44 -445q-7 -65 -7 -93q0 -96 89 -96q74 0 135 78q102 132 102 328q0 248 -167 399q-157 143 -393 143q-259 0 -443 -176q-193 -184 -193 -460q0 -264 175 -447q182 -192 488 -192q186 0 358 66l25 -66q-179 -69 -381 -69 q-341 0 -549 206q-96 95 -150 224q-57 134 -57 280q0 203 107 372q104 167 291 255q159 75 330 75q177 0 330 -79q162 -84 246 -241q70 -131 70 -287q0 -229 -139 -383q-82 -91 -190 -91q-155 0 -179 138q-42 -56 -77 -83q-76 -55 -178 -55q-121 0 -186.5 80.5t-65.5 227.5 q0 219 118 353q91 104 236 104q143 0 200 -115zM777 1012q-122 0 -195 -129q-61 -108 -61 -268q0 -114 45.5 -174t133.5 -60q119 0 190 108q69 104 69 280q0 117 -47 179.5t-135 63.5z" />
<glyph unicode="A" horiz-adv-x="1137" d="M248 464l-149 -412q-6 -17 -7 -52h-78q17 34 24 52l454 1271q5 13 9 42h116q3 -20 8 -34l471 -1279q7 -19 28 -52h-154q-2 25 -11 52l-150 412h-561zM265 519h520l-265 712z" />
<glyph unicode="B" horiz-adv-x="1062" d="M164 1365h355q168 0 275 -67q131 -81 131 -264q0 -119 -72 -201q-65 -75 -223 -119q85 -12 143 -38q77 -35 122 -104q58 -88 58 -200q0 -191 -149 -297q-104 -75 -244 -75h-396q7 27 7 66v1236q0 37 -7 63zM298 741h124q159 0 251 55q121 71 121 248q0 260 -304 260h-192 v-563zM298 68h211q78 0 124.5 12.5t87.5 45.5q101 78 101 235q0 176 -118 259q-56 39 -114.5 52.5t-168.5 13.5h-123v-618z" />
<glyph unicode="C" horiz-adv-x="1121" d="M1063 1326v-136q-85 71 -153.5 98t-163.5 27q-263 0 -394 -193q-120 -175 -120 -434q0 -276 139 -452q141 -179 380 -179q97 0 165.5 32t146.5 114v-135q-84 -48 -155.5 -67t-170.5 -19q-295 0 -462 172q-184 189 -184 538q0 308 159 487q181 205 517 205q154 0 296 -58z " />
<glyph unicode="D" horiz-adv-x="1305" d="M164 1365h354q201 0 351 -73q164 -79 249 -229q92 -163 92 -371q0 -231 -107 -405q-53 -86 -142 -155t-192 -103q-89 -29 -219 -29h-386q7 33 7 65v1236q0 31 -7 64zM298 78h243q205 0 330 107q92 79 135 184q63 153 63 329q0 258 -116 395q-169 200 -461 200h-194v-1215 z" />
<glyph unicode="E" horiz-adv-x="909" d="M164 1365h635v-71q-29 10 -60 10h-441v-576h426q42 0 76 10v-70q-27 5 -74 5h-428v-605h429q16 1 73 10v-78h-634q5 34 5 64v1236q0 41 -7 65z" />
<glyph unicode="F" horiz-adv-x="844" d="M164 1365h623v-67q-36 6 -74 6h-415v-582h365q31 0 66 8v-70q-28 7 -68 7h-363v-603q0 -31 7 -64h-141q7 33 7 64v1238q0 30 -7 63z" />
<glyph unicode="G" horiz-adv-x="1309" d="M1128 1306v-119q-199 120 -385 120q-213 0 -352 -146q-82 -86 -115 -190q-40 -129 -40 -288q0 -109 23 -215.5t62 -173.5q78 -138 229 -199q96 -38 210 -38q147 0 279 73v551q0 30 -6 64h139q-6 -34 -6 -64v-530q1 -40 13 -74q-160 -57 -250.5 -76t-199.5 -19 q-290 0 -454 180q-180 199 -180 524q0 353 215 544q172 153 455 153q94 0 171.5 -16.5t191.5 -60.5z" />
<glyph unicode="H" horiz-adv-x="1320" d="M298 682v-618q0 -31 7 -64h-141q7 33 7 64v1237q0 31 -7 64h141q-7 -33 -7 -64v-564h725v564q0 31 -7 64h141q-7 -33 -7 -64v-1237q0 -31 7 -64h-141q7 33 7 64v618h-725z" />
<glyph unicode="I" horiz-adv-x="496" d="M177 1365h141q-7 -23 -7 -64v-1237q0 -41 7 -64h-141q7 33 7 64v1237q0 31 -7 64z" />
<glyph unicode="J" horiz-adv-x="474" d="M-106 -283l52 104q77 -75 135 -75q96 0 96 135v1419q0 32 -7 65h141q-7 -33 -7 -65v-1405q0 -77 -4 -101t-22 -52q-25 -41 -78.5 -65.5t-117.5 -24.5q-95 0 -188 65z" />
<glyph unicode="K" horiz-adv-x="1025" d="M298 683v-619q0 -31 7 -64h-141q7 33 7 64v1237q0 31 -7 64h141q-7 -33 -7 -64v-539l492 568q14 17 23 35h93q-34 -26 -46 -40l-475 -552l615 -723q30 -36 51 -50h-186q-8 23 -26 45z" />
<glyph unicode="L" horiz-adv-x="816" d="M787 0h-623q7 32 7 61v1239q0 31 -7 65h141q-7 -34 -7 -65v-1232h432q33 0 57 7v-75z" />
<glyph unicode="M" horiz-adv-x="1650" d="M335 1180l-191 -1124q-1 -7 -1 -19v-7q1 -13 1 -30h-68q7 28 15 61l205 1248v6l-1 50h119q6 -35 9 -45l409 -1185l415 1191q4 14 4 39h124v-15v-24l189 -1270q7 -31 12 -56h-136q4 19 4 31q0 11 -1 20l-178 1163l-400 -1158q-10 -30 -10 -56h-115v12q0 14 -7 33z" />
<glyph unicode="N" horiz-adv-x="1361" d="M224 1244v-1180q0 -31 7 -64h-74q7 33 7 64v1237q0 31 -7 64h140q5 -19 19 -38l819 -1167v1141q0 31 -7 64h74q-7 -33 -7 -64v-1244q0 -39 9 -57h-111q-6 16 -26 44z" />
<glyph unicode="O" horiz-adv-x="1490" d="M745 1383q304 0 473 -179q176 -184 176 -520q0 -337 -176 -523q-168 -179 -469 -179q-321 0 -487 188q-166 189 -166 526q0 322 176 508q165 176 473 179zM739 1315q-258 0 -387 -188q-115 -166 -115 -434q0 -287 115 -456q128 -187 396 -187q250 0 382 176 q123 165 123 457q0 294 -123 456q-70 92 -161 132q-96 43 -230 44z" />
<glyph unicode="P" horiz-adv-x="987" d="M298 628v-563q0 -32 7 -65h-141q7 33 7 65v1234q0 32 -7 66h359q137 0 248 -58q177 -92 177 -297q0 -164 -113 -264q-131 -118 -370 -118h-167zM298 689h160q119 0 190 32q77 34 121 106q48 79 48 175q0 140 -89.5 221t-243.5 81h-186v-615z" />
<glyph unicode="Q" horiz-adv-x="1488" d="M1339 -180l-138 -88q-35 18 -205 109q-116 62 -205 95.5t-231 69.5q-212 53 -316 186q-148 191 -148 484q0 211 79 386q84 186 269 264q135 57 302 57q283 0 441 -144q115 -104 168 -284q38 -132 38 -273q0 -206 -74 -366q-62 -135 -164 -210t-263 -105q39 -17 164 -78 q190 -83 283 -103zM753 1315q-270 0 -394 -173q-122 -172 -122 -466q0 -209 72 -362q120 -256 436 -256q227 0 344 127q163 175 163 492q0 134 -32 259.5t-87 204.5q-116 167 -380 174z" />
<glyph unicode="R" horiz-adv-x="1033" d="M298 650v-586q0 -31 7 -64h-141q7 33 7 64v1237q0 31 -7 64h298q128 0 227 -43q92 -39 147 -117q61 -86 61 -196q0 -162 -111 -253.5t-324 -105.5l534 -602q23 -25 59 -48h-196q-11 24 -38 55zM298 702h137q105 0 191 49q140 81 140 250q0 76 -32 141t-89 105 q-81 57 -230 57h-117v-602z" />
<glyph unicode="S" horiz-adv-x="909" d="M68 83l36 113q48 -42 83 -67q103 -72 231 -72q147 0 230 91q70 77 70 186q0 132 -104 216q-44 36 -211 121q-165 85 -236 155q-89 90 -89 215q0 101 59 184q112 158 352 158q141 0 287 -69l-35 -94q-145 95 -272 95q-130 0 -205 -81q-63 -67 -63 -160q0 -92 61 -156 t229 -148q114 -58 166 -91t87 -71q97 -106 97 -244q0 -105 -57 -196q-116 -186 -374 -186q-172 0 -342 101z" />
<glyph unicode="T" horiz-adv-x="852" d="M-46 1365h945v-77q-56 9 -89 9h-317v-1233q0 -31 7 -64h-141q7 33 7 64v1233h-327q-40 0 -85 -9v77z" />
<glyph unicode="U" horiz-adv-x="1341" d="M1190 1365q-7 -27 -7 -64v-865q0 -151 -67 -257q-74 -118 -203 -160q-115 -37 -252 -37q-212 0 -328 81q-82 57 -128 148.5t-46 198.5v891q0 31 -7 64h141q-7 -33 -7 -64v-882q0 -118 54 -206q103 -167 358 -167q246 0 354 150q74 103 74 258v847q0 34 -7 64h71z" />
<glyph unicode="V" horiz-adv-x="1003" d="M-34 1365h142q2 -19 14 -54l413 -1183l419 1191q10 28 13 46h70q-7 -15 -23 -54l-442 -1260q-3 -10 -12 -51h-114q-4 18 -17 51l-436 1246q-1 4 -16 41q-3 6 -11 27z" />
<glyph unicode="W" horiz-adv-x="1600" d="M791 1219l-322 -1167q-4 -13 -9 -52h-121q0 34 -8 69l-321 1239q-8 28 -17 57h131v-4q0 -7 9 -42l303 -1165l318 1153q8 31 8 45q0 4 -1 13h128v-7q0 -16 8 -44l331 -1160l299 1160q8 32 8 51h71q-3 -12 -16 -51l-327 -1262q-4 -16 -11 -52h-122q-1 32 -11 69z" />
<glyph unicode="X" horiz-adv-x="964" d="M419 687l-360 623q-14 25 -38 55h150q6 -10 29 -55l294 -505l302 505q24 44 31 55h73q-6 -11 -35 -55l-341 -556l409 -699q27 -44 34 -55h-151q-15 35 -27 55l-339 574l-349 -574q-8 -12 -29 -55h-75q6 10 36 55z" />
<glyph unicode="Y" horiz-adv-x="859" d="M365 613l-369 702q-17 33 -30 50h153q4 -15 24 -55l323 -619l330 623q13 25 21 51h77q-16 -22 -28 -44l-374 -708v-549q0 -31 7 -64h-141q7 33 7 64v549z" />
<glyph unicode="Z" horiz-adv-x="1009" d="M49 0v82l772 1222h-676q-10 0 -65 -4q-7 -1 -31 -2v67h911v-68l-776 -1229h686q52 0 90 8v-76h-911z" />
<glyph unicode="[" horiz-adv-x="601" d="M281 1417v-1502h158q33 0 57 7v-65h-335q6 34 6 65v1488q0 30 -6 65h335v-65q-24 7 -57 7h-158z" />
<glyph unicode="\" horiz-adv-x="670" d="M674 -229h-89l-518 1594h89z" />
<glyph unicode="]" horiz-adv-x="601" d="M320 1417h-158q-33 0 -57 -7v65h335q-6 -34 -6 -65v-1488q0 -30 6 -65h-335v65q24 -7 57 -7h158v1502z" />
<glyph unicode="^" d="M192 779h-119l369 589h140l369 -589h-120l-321 504z" />
<glyph unicode="_" d="M0 -128h1024v-72h-1024v72z" />
<glyph unicode="`" d="M512 1161l-199 291h130l132 -291h-63z" />
<glyph unicode="a" horiz-adv-x="967" d="M699 174q-72 -90 -130 -127q-104 -65 -229 -65q-119 0 -196 67q-91 81 -91 220q0 178 145 260q60 34 105 50.5t257 79.5q76 23 107.5 57.5t31.5 95.5q0 74 -59.5 121.5t-154.5 47.5q-77 0 -138.5 -25.5t-148.5 -94.5l-29 97q105 57 173.5 77t163.5 20q143 0 224 -58.5 t81 -161.5v-661q0 -106 68 -106q27 0 75 34v-80q-61 -40 -115 -40q-70 0 -104 47t-36 145zM699 657q-88 -50 -281 -109q-142 -42 -193 -106q-55 -70 -55 -156q0 -99 59.5 -160.5t155.5 -61.5q163 0 256 134q58 84 58 175v284z" />
<glyph unicode="b" horiz-adv-x="1079" d="M261 840q133 215 346 215q172 0 274 -130q108 -138 108 -388q0 -264 -124 -416q-113 -139 -299 -139q-91 0 -164.5 32.5t-153.5 107.5l-41 -122h-64q6 34 6 64v1344q0 30 -6 64h124q-6 -34 -6 -64v-568zM584 969q-71 0 -139.5 -35t-114.5 -94q-70 -92 -70 -251 q0 -180 2.5 -245.5t10.5 -94.5q22 -82 108 -142q85 -59 187 -59q143 0 223.5 129t80.5 359q0 123 -22.5 205t-72.5 139q-75 86 -193 89z" />
<glyph unicode="c" horiz-adv-x="874" d="M814 68q-78 -48 -142.5 -67t-145.5 -19q-214 0 -325 138q-111 139 -111 372q0 293 155 444q123 120 330 120q120 0 239 -46v-112q-75 58 -129 80t-121 22q-159 0 -250 -129q-98 -139 -98 -357q0 -182 71 -312q85 -154 257 -154q78 0 139.5 28.5t130.5 96.5v-105z" />
<glyph unicode="d" horiz-adv-x="1075" d="M814 185q-59 -87 -102 -125q-90 -78 -232 -78q-183 0 -284 138q-106 145 -106 389q0 248 114 402q108 144 304 144q203 0 306 -162v515q0 30 -6 64h124q-6 -34 -6 -64v-1344q0 -30 6 -64h-118v185zM523 990q-163 0 -245 -151q-71 -132 -71 -325q0 -203 71 -321 q74 -125 227 -125q152 0 235 125q81 122 81 339t-77.5 336t-220.5 122z" />
<glyph unicode="e" horiz-adv-x="1057" d="M930 68q-167 -86 -335 -86q-260 0 -392 160q-113 137 -113 370q0 264 134 409q126 135 321 135q140 0 245 -75q170 -121 190 -397h-774q0 -141 18 -219q33 -153 117 -232q90 -85 258 -85q158 0 303 112zM213 635h646q-10 88 -32 149q-39 105 -120 162q-69 48 -161 48 q-118 0 -208 -82q-98 -90 -125 -277z" />
<glyph unicode="f" horiz-adv-x="602" d="M177 976h-131v59h131v225q0 110 72 170q78 65 212 65q73 0 219 -34l-30 -88q-111 56 -202 56q-81 0 -125 -45q-34 -34 -34 -117v-232h344v-59h-344v-912q0 -30 6 -64h-124q6 33 6 64v912z" />
<glyph unicode="g" horiz-adv-x="1076" d="M137 -74l-39 93l250 181q-98 49 -150 104q-100 107 -100 296q0 221 133 345q117 110 318 110q30 0 105 -2q109 23 125 169h134q-13 -133 -179 -190q253 -109 253 -408q0 -241 -155 -362q-104 -81 -264 -89q-85 -5 -114 -12t-67 -31l-201 -128q258 66 408 66 q160 0 286 -44q66 -23 105.5 -70t39.5 -103q0 -97 -106 -153t-289 -56q-238 0 -510 94v38q152 -41 244.5 -55.5t204.5 -14.5q144 0 234 42q90 43 90 113q0 64 -93 99.5t-259 35.5q-179 0 -404 -68zM547 989q-161 0 -246 -108q-78 -100 -78 -267q0 -185 80.5 -282.5 t234.5 -97.5q156 0 238 97q86 102 86 279q0 178 -82.5 277.5t-232.5 101.5z" />
<glyph unicode="h" horiz-adv-x="1093" d="M143 0q6 34 6 64v1344q0 30 -6 64h124q-6 -34 -6 -64v-537q61 98 139 141t195 43q164 0 256 -82t92 -228v-681q0 -30 6 -64h-124q6 34 6 64v630q0 78 -14 124.5t-49 84.5q-63 67 -193 67q-158 0 -233 -85q-81 -90 -81 -223v-598q0 -30 6 -64h-124z" />
<glyph unicode="i" horiz-adv-x="437" d="M222 1311q41 0 68 -23t27 -59q0 -35 -26.5 -58.5t-67.5 -23.5q-43 0 -70 23t-27 59q0 35 27.5 58.5t68.5 23.5zM154 1035h124q-6 -34 -6 -64v-907q0 -30 6 -64h-124q6 34 6 64v907q0 30 -6 64z" />
<glyph unicode="j" horiz-adv-x="437" d="M222 1311q41 0 68 -23t27 -59q0 -35 -26.5 -58.5t-67.5 -23.5q-43 0 -70 23t-27 59q0 35 27.5 58.5t68.5 23.5zM-96 -272l39 92q47 -52 76 -71.5t62 -19.5q45 0 62 30.5t17 110.5v1101q0 30 -6 64h124q-6 -34 -6 -64v-1067q0 -103 -16 -148q-18 -48 -63 -75t-107 -27 q-92 0 -182 74z" />
<glyph unicode="k" horiz-adv-x="899" d="M261 571v-507q0 -30 6 -64h-124q6 34 6 64v1343q0 31 -6 65h124q-6 -34 -6 -65v-789l396 371q27 26 41 46h93q-22 -16 -61 -52l-375 -354l574 -581q19 -18 56 -48h-167q-25 29 -53 58z" />
<glyph unicode="l" horiz-adv-x="410" d="M267 1472q-6 -34 -6 -64v-1344q0 -30 6 -64h-124q6 34 6 64v1344q0 30 -6 64h124z" />
<glyph unicode="m" horiz-adv-x="1644" d="M261 904q70 85 138 118t172 33q112 0 180 -35t113 -116q73 83 145.5 117.5t175.5 34.5q156 0 238 -77q72 -68 72 -221v-694q0 -30 6 -64h-124q6 35 6 64v685q0 98 -32 145q-52 76 -191 76q-112 0 -185 -50q-97 -65 -97 -208v-648q0 -29 6 -64h-124q6 34 6 64v685 q0 98 -36 144q-59 76 -187 76q-125 0 -203.5 -64t-78.5 -166v-675q0 -30 6 -64h-124q6 34 6 64v907q0 31 -6 64h118v-131z" />
<glyph unicode="n" horiz-adv-x="1097" d="M143 1035h118v-172q41 79 92 119q94 73 245 73q189 0 288 -114q61 -71 61 -193v-684q0 -30 6 -64h-124q6 24 6 64v681q0 106 -68.5 165t-191.5 59q-152 0 -230 -82q-84 -88 -84 -231v-592q0 -30 6 -64h-124q6 30 6 64v907q0 30 -6 64z" />
<glyph unicode="o" horiz-adv-x="1106" d="M553 1055q229 0 355 -168q108 -143 108 -370q0 -242 -125 -387q-128 -148 -337 -148q-146 0 -256 73q-115 76 -168 231q-40 115 -40 250q0 217 117 362q124 154 346 157zM554 1007q-147 0 -239 -120q-107 -139 -107 -363q0 -236 109 -376q92 -118 237 -118q144 0 236 118 q109 139 109 371q0 234 -108 370q-93 116 -237 118z" />
<glyph unicode="p" horiz-adv-x="1075" d="M256 144v-408q0 -30 6 -64h-124q6 34 6 64v1235q0 30 -6 64h118v-181q129 202 338 202q157 0 267 -118q65 -69 94.5 -162t29.5 -230q0 -281 -128 -432q-52 -61 -130.5 -96.5t-163.5 -35.5q-185 0 -307 162zM581 970q-148 0 -242 -112q-49 -58 -67.5 -133t-18.5 -210 q0 -211 42 -294q86 -173 267 -173q154 0 233 143q73 132 73 335q0 436 -287 444z" />
<glyph unicode="q" horiz-adv-x="1069" d="M814 200q-55 -96 -113 -142q-93 -76 -219 -76q-123 0 -220 71q-172 127 -172 450q0 263 109 404q114 149 317 149q95 0 162.5 -32t150.5 -116l35 127h68q-6 -34 -6 -64v-1235q0 -30 6 -64h-124q6 34 6 64v464zM525 990q-127 0 -208 -90q-57 -64 -83.5 -157t-26.5 -231 q0 -224 84 -341q73 -103 204 -103q123 0 205 85q121 127 121 425q0 116 -21 192.5t-68 127.5q-80 89 -207 92z" />
<glyph unicode="r" horiz-adv-x="594" d="M143 1035h118v-154q34 94 91.5 131t177.5 44v-102q-137 1 -203 -68.5t-66 -215.5v-606q0 -31 6 -64h-124q6 34 6 64v906q0 31 -6 65z" />
<glyph unicode="s" horiz-adv-x="792" d="M57 70l25 103q83 -70 147.5 -98t144.5 -28q118 0 183 69q60 63 60 146q0 77 -52.5 124.5t-200.5 104.5q-163 63 -219 133t-56 157q0 146 129 224q85 51 204 51q141 0 290 -72l-25 -90q-136 97 -255 97q-100 0 -163 -56t-63 -139q0 -68 45.5 -111t171.5 -93 q184 -74 248 -136t64 -166q0 -148 -120 -238q-93 -70 -248 -70t-310 88z" />
<glyph unicode="t" horiz-adv-x="562" d="M191 976h-177v59h177v242l112 13v-35v-46v-174h183v-59h-183v-811q0 -107 86 -107q40 0 101 33v-71q-66 -38 -141 -38q-84 0 -124 52q-21 27 -27.5 56t-6.5 89v797z" />
<glyph unicode="u" horiz-adv-x="1089" d="M827 0v166q-53 -87 -110 -126q-85 -58 -217 -58q-174 0 -272 97q-79 80 -79 227v665q0 30 -6 64h124q-6 -34 -6 -64v-658q0 -103 52 -166q66 -79 203 -79q166 0 254 109q57 70 57 170v624q0 30 -6 64h124q-6 -34 -6 -64v-907q0 -30 6 -64h-118z" />
<glyph unicode="v" horiz-adv-x="866" d="M459 134l331 846q11 29 14 55h68q-5 -13 -25 -55l-364 -925q-14 -38 -14 -55h-87q-6 31 -15 55l-352 925q-18 44 -22 55h126q8 -37 15 -55z" />
<glyph unicode="w" horiz-adv-x="1416" d="M386 150l282 830q6 20 15 55h119q5 -35 11 -55l261 -830l273 830q6 19 6 35q0 6 -3 20h72q-10 -27 -21 -55l-298 -925q-12 -46 -14 -55h-88q-3 30 -11 55l-278 886l-299 -886q-13 -45 -16 -55h-91q-4 31 -11 55l-282 925q-11 30 -20 55h129q4 -32 10 -55z" />
<glyph unicode="x" horiz-adv-x="838" d="M374 517l-296 464q-23 36 -36 54h139q12 -27 30 -55l232 -368l259 369q25 36 32 54h74q-6 -11 -39 -55l-295 -414l325 -511q30 -44 37 -55h-143q-2 17 -25 55l-260 412l-294 -412q-29 -44 -36 -55h-75q13 14 42 55z" />
<glyph unicode="y" horiz-adv-x="846" d="M361 0l-347 980q-18 44 -21 55h125q2 -9 15 -55l290 -823l346 823q7 18 18 55h72q-4 -10 -25 -55l-521 -1253q-6 -15 -18 -55h-72q4 10 25 55z" />
<glyph unicode="z" horiz-adv-x="915" d="M42 0v77l694 891h-607q-37 0 -77 -8v75h816v-67l-697 -898h623q37 0 74 7v-77h-826z" />
<glyph unicode="{" horiz-adv-x="601" d="M159 664q68 -25 96.5 -74t28.5 -139v-357q0 -61 7.5 -89.5t28.5 -50.5q41 -40 125 -40q27 0 58 7v-64q-92 0 -140.5 8t-90.5 29q-53 28 -75 83t-22 159v326q0 96 -26 136t-92 45v46q66 5 92 44t26 133v357q0 138 65.5 195t224.5 57h38v-66q-41 7 -68 7q-80 0 -115.5 -40 t-35.5 -131v-373q0 -87 -29 -135.5t-96 -72.5z" />
<glyph unicode="|" d="M452 1365h121v-1706h-121v1706z" />
<glyph unicode="}" horiz-adv-x="601" d="M441 664q-67 24 -96 72t-29 136v373q0 91 -35.5 131t-115.5 40q-27 0 -67 -7v66h38q158 0 223.5 -57t65.5 -195v-357q0 -94 26.5 -133t92.5 -44v-46q-67 -5 -93 -45t-26 -136v-326q0 -104 -22 -159t-75 -83q-41 -21 -89.5 -29t-140.5 -8v64q31 -7 57 -7q93 0 132 48 q29 36 29 132v357q0 91 28.5 139.5t96.5 73.5z" />
<glyph unicode="~" horiz-adv-x="1365" d="M263 1203l-69 53q58 113 122 164.5t146 51.5q81 0 239 -82q89 -47 127 -60.5t78 -13.5q57 0 102.5 37.5t94.5 123.5l69 -53q-41 -81 -81 -126q-80 -92 -188 -92q-43 0 -91.5 17.5t-150.5 69.5q-136 70 -203 70q-56 0 -100.5 -36t-94.5 -124z" />
<glyph unicode="&#xa1;" horiz-adv-x="483" d="M282 739l29 -1008q2 -40 8 -55h-154q4 26 5 55l30 1008h82zM241 1055q42 0 69 -21.5t27 -54.5q0 -32 -27.5 -53t-68.5 -21t-68 21t-27 54q0 32 26.5 53.5t68.5 21.5z" />
<glyph unicode="&#xa2;" horiz-adv-x="819" d="M460 1212v133h53v-133q116 3 244 -46v-110q-126 94 -244 98v-954q74 8 124 34t120 92v-103q-106 -78 -244 -86v-142h-53v142q-90 4 -147 21q-149 46 -222 210q-56 125 -56 286q0 204 84 353q99 176 341 205zM460 1151q-129 -22 -210 -138q-92 -130 -92 -344 q0 -110 28.5 -209t77.5 -158q38 -46 81 -68t115 -34v951z" />
<glyph unicode="&#xa3;" horiz-adv-x="975" d="M219 -3l-23 118q35 -24 74 -24q62 0 97.5 44.5t35.5 122.5q0 54 -15 114.5t-76 247.5h-160v60h140q-63 174 -80.5 239.5t-17.5 129.5q0 74 36.5 143.5t99.5 115.5q103 75 252 75q138 0 256 -66l-18 -102q-101 90 -240 90q-105 0 -174 -58q-89 -75 -89 -193 q0 -56 18 -128.5t75 -245.5h349v-60h-329q40 -115 53 -173.5t13 -124.5q0 -95 -35.5 -160.5t-98.5 -86.5q109 -8 178 -8q156 0 324 41v-111q-150 -15 -284 -15q-97 0 -361 15z" />
<glyph unicode="&#xa4;" horiz-adv-x="975" d="M731 388q-109 -88 -244 -88q-137 0 -244 88l-129 -129l-51 51l129 129q-88 109 -88 244q0 130 87 244l-128 129l51 51l128 -128q111 86 245 86q135 0 244 -87l129 129l51 -51l-129 -129q88 -113 88 -244q0 -135 -88 -244l129 -129l-51 -51zM492 974q-133 0 -220 -97 q-74 -83 -74 -192q0 -132 95 -219q83 -75 194 -75q129 0 215 97q74 83 74 195q0 127 -96 216q-77 71 -188 75z" />
<glyph unicode="&#xa5;" horiz-adv-x="915" d="M393 617l-88 180h-244v60h215l-223 458q-13 27 -29 50h147q3 -12 24 -55l295 -619l304 623q14 30 21 51h76q-19 -26 -27 -44l-227 -464h217v-60h-247l-88 -180h335v-60h-337v-493q0 -31 7 -64h-136q7 33 7 64v493h-334v60h332z" />
<glyph unicode="&#xa6;" d="M452 1365h121v-675h-121v675zM452 314h121v-655h-121v655z" />
<glyph unicode="&#xa7;" horiz-adv-x="975" d="M853 1307l-44 -96q-74 55 -135 77t-140 22q-109 0 -177 -59q-86 -75 -86 -191q0 -103 82 -170q41 -35 166 -84l142 -56q147 -58 189 -115q50 -66 50 -151q0 -64 -29 -120t-103 -134q72 -92 72 -218q0 -147 -94 -254q-60 -68 -136 -97.5t-192 -29.5q-189 0 -338 100 l37 113q82 -79 149 -109t163 -30q137 0 213 75q82 81 82 217q0 109 -67 168q-26 23 -45 32.5t-95 36.5l-192 70q-143 52 -191 103q-60 64 -60 154q0 71 27.5 130.5t105.5 160.5q-52 77 -52 166q0 165 129 275q105 90 281 90q163 0 288 -76zM273 792q-84 -117 -84 -195 q0 -68 49 -113.5t163 -84.5l151 -52q99 -35 142 -62q92 104 92 191q0 77 -57 114q-27 18 -129 59l-138 54q-108 43 -189 89z" />
<glyph unicode="&#xa8;" d="M308 1351q41 0 68 -23t27 -58q0 -36 -26.5 -59.5t-67.5 -23.5q-43 0 -70 23t-27 59q0 35 27.5 58.5t68.5 23.5zM717 1355q42 0 68.5 -23t26.5 -58q0 -36 -26.5 -59.5t-67.5 -23.5q-43 0 -70 23t-27 59q0 35 27.5 58.5t68.5 23.5z" />
<glyph unicode="&#xa9;" horiz-adv-x="1556" d="M789 1392q182 0 344 -95q165 -98 260 -260q95 -164 95 -354q0 -191 -95 -355q-95 -165 -260 -260t-355 -95t-355 95q-166 96 -260 260q-95 165 -95 360q0 306 235 521q200 183 486 183zM788 1326q-292 0 -482 -214q-164 -183 -164 -424q0 -178 85 -327q86 -150 233 -236 q148 -86 318 -86t318 86q148 87 233 236q85 150 85 322q0 282 -211 477q-170 158 -415 166zM1049 1067v-101q-60 45 -102.5 61t-102.5 16q-159 0 -238 -110q-72 -100 -72 -248q0 -157 83 -257q85 -102 231 -102q61 0 103.5 19.5t97.5 72.5v-102q-99 -53 -213 -53 q-186 0 -296 103q-119 112 -119 323q0 185 103 292q117 122 331 122q101 0 194 -36z" />
<glyph unicode="&#xaa;" horiz-adv-x="819" d="M538 649q-68 -114 -217 -114q-85 0 -136.5 48.5t-51.5 128.5q0 110 95 160q55 29 228 77q44 12 62.5 31t18.5 52q0 42 -35 68t-90 26q-49 0 -86.5 -16t-97.5 -62l-23 73q69 37 113.5 49.5t105.5 12.5q93 0 146 -36.5t53 -101.5v-389q0 -56 34 -56q16 0 56 27v-65 q-43 -26 -81 -26q-46 0 -68 26t-26 87zM537 928q-49 -26 -165 -59q-86 -23 -117 -61q-32 -39 -32 -87q0 -56 34.5 -90t91.5 -34q98 0 153 77q35 48 35 99v155z" />
<glyph unicode="&#xab;" horiz-adv-x="743" d="M657 161h-106l-212 391l212 394h106l-210 -394zM418 161h-107l-211 391l211 394h107l-211 -394z" />
<glyph unicode="&#xac;" d="M837 0v454h-769v107h887v-561h-118z" />
<glyph unicode="&#xad;" horiz-adv-x="454" d="M0 491l31 98h423l-30 -98h-424z" />
<glyph unicode="&#xae;" horiz-adv-x="1556" d="M789 1392q182 0 344 -95q165 -98 260 -260q95 -164 95 -354q0 -191 -95 -355q-95 -165 -260 -260t-355 -95t-355 95q-166 96 -260 260q-95 165 -95 360q0 306 235 521q200 183 486 183zM788 1326q-292 0 -482 -214q-164 -183 -164 -424q0 -178 85 -327q86 -150 233 -236 q148 -86 318 -86t318 86q148 87 233 236q85 150 85 322q0 282 -211 477q-170 158 -415 166zM638 644v-326q0 -20 6 -45h-108q6 25 6 45v729q0 20 -6 45h196q82 0 145 -26q64 -26 100 -76.5t36 -114.5q0 -95 -69 -151.5t-196 -65.5l324 -345q13 -14 51 -40h-148q-8 16 -24 34 zM638 701h77q65 0 117 28q83 46 83 142q0 91 -72 138q-49 33 -140 33h-65v-341z" />
<glyph unicode="&#xaf;" d="M0 1565h1024v-72h-1024v72z" />
<glyph unicode="&#xb0;" horiz-adv-x="975" d="M492 1379q117 0 200 -91q71 -78 71 -184q0 -123 -91 -205q-79 -71 -184 -71q-123 0 -205 91q-71 79 -71 187q0 119 91 202q78 71 189 71zM491 1302q-90 0 -149 -66q-51 -56 -51 -131q0 -90 65 -149q56 -51 132 -51q87 0 145 66q51 56 51 133q0 86 -65 147q-53 48 -128 51 z" />
<glyph unicode="&#xb1;" horiz-adv-x="975" d="M452 647h-362v72h362v350h72v-350h361v-72h-361v-350h-72v350zM90 109v72h795v-72h-795z" />
<glyph unicode="&#xb2;" horiz-adv-x="650" d="M87 616q341 323 341 552q0 70 -39.5 109t-109.5 39q-83 0 -155 -58l-13 74q85 44 178 44q96 0 157 -46q81 -61 81 -160t-89.5 -238t-265.5 -312h303q41 0 64 6v-80h-457q5 26 5 39v31z" />
<glyph unicode="&#xb3;" horiz-adv-x="650" d="M106 677q46 -45 80.5 -62t80.5 -17q69 0 109.5 49t40.5 131q0 80 -46 128t-123 48q-3 0 -29 -1v64q21 -1 40 -1q64 0 101 43t37 116q0 65 -33.5 102.5t-90.5 37.5q-36 0 -62 -12t-66 -46l-6 84q69 35 144 35q95 0 151 -52t56 -140q0 -80 -41 -128.5t-129 -71.5 q65 -16 99 -36q91 -52 91 -174q0 -107 -65 -172.5t-171 -65.5q-100 0 -188 61z" />
<glyph unicode="&#xb4;" d="M421 1161l137 293h128l-200 -293h-65z" />
<glyph unicode="&#xb5;" horiz-adv-x="1094" d="M143 1035h124q-6 -33 -6 -64v-658q0 -103 52 -166q66 -79 203 -79q166 0 254 109q57 71 57 170v624q0 31 -6 64h124q-6 -33 -6 -64v-907q0 -30 6 -64h-118v166q-53 -87 -110 -126q-84 -58 -222 -58q-89 0 -141 20t-93 70v-336q0 -30 6 -64h-124q6 34 6 64v1235 q0 31 -6 64z" />
<glyph unicode="&#xb6;" horiz-adv-x="975" d="M599 628h-48q-138 0 -254 47q-114 45 -175 140q-54 83 -54 196q0 203 177 296q111 58 248 58h413q-7 -34 -7 -66v-1640h-85v1638h-130v-1638h-85v969z" />
<glyph unicode="&#xb7;" horiz-adv-x="483" d="M241 607q42 0 69 -21t27 -54q0 -32 -27 -53.5t-68 -21.5q-42 0 -69 21.5t-27 54.5q0 32 27 53t68 21z" />
<glyph unicode="&#xb8;" d="M413 -405l90 309h109l-136 -309h-63z" />
<glyph unicode="&#xb9;" horiz-adv-x="650" d="M287 1277l-163 -72v39q0 13 -5 36l270 102q-6 -23 -6 -45v-746q0 -19 5 -45h-106q5 25 5 45v686z" />
<glyph unicode="&#xba;" horiz-adv-x="819" d="M409 1183q147 0 228 -101q70 -86 70 -223q0 -147 -81 -234q-82 -89 -216 -89q-149 0 -228 102q-70 89 -70 231q0 141 81 226.5t216 87.5zM410 1141q-88 0 -144 -69q-64 -80 -64 -210q0 -136 66 -216q55 -68 142 -68q85 0 142 68q65 79 65 214t-65 213q-56 67 -142 68z " />
<glyph unicode="&#xbb;" horiz-adv-x="743" d="M86 161l211 391l-211 394h107l211 -394l-211 -391h-107zM325 161l211 391l-211 394h107l211 -394l-211 -391h-107z" />
<glyph unicode="&#xbc;" horiz-adv-x="1574" d="M274 1277l-163 -72v39q0 13 -5 36l270 102q-6 -23 -6 -45v-746q0 -19 5 -45h-106q5 25 5 45v686zM432 0l614 1365h69l-615 -1365h-68zM1293 256h-332v66q14 14 29 39l275 422q13 21 18 36h105q-4 -25 -4 -45v-453h52q24 0 47 8v-77q-37 4 -48 4h-51v-211q0 -22 4 -45 h-100q5 27 5 45v211zM1293 321v414l-269 -414h269z" />
<glyph unicode="&#xbd;" horiz-adv-x="1574" d="M287 1277l-163 -72v39q0 13 -5 36l270 102q-6 -23 -6 -45v-746q0 -19 5 -45h-106q5 25 5 45v686zM445 0l614 1365h69l-615 -1365h-68zM1010 70q341 323 341 552q0 70 -39.5 109t-109.5 39q-84 0 -155 -58l-13 74q84 44 178 44q96 0 157 -46q81 -62 81 -160 q0 -99 -89.5 -238t-265.5 -312h303q41 0 64 6v-80h-457q5 26 5 39v31z" />
<glyph unicode="&#xbe;" horiz-adv-x="1574" d="M106 677q46 -45 80.5 -62t80.5 -17q69 0 109.5 49t40.5 131q0 80 -46 128t-123 48q-10 0 -29 -1v64q29 -1 40 -1q64 0 101 43t37 116q0 65 -33.5 102.5t-90.5 37.5q-36 0 -62 -12t-66 -46l-6 84q69 35 144 35q95 0 151 -52t56 -140q0 -80 -41 -128.5t-129 -71.5 q65 -16 99 -36q91 -52 91 -174q0 -107 -64.5 -172.5t-171.5 -65.5q-100 0 -188 61zM445 0l614 1365h69l-615 -1365h-68zM1306 256h-332v66q14 14 29 39l275 422q13 21 18 36h105q-4 -25 -4 -45v-453h52q24 0 47 8v-77q-37 4 -48 4h-51v-211q0 -22 4 -45h-100q5 26 5 45v211z M1306 321v414l-269 -414h269z" />
<glyph unicode="&#xbf;" horiz-adv-x="714" d="M563 -169l11 -99q-108 -74 -233 -74q-110 0 -180 65q-71 66 -71 166q0 79 47.5 167.5t170.5 236.5q88 107 116.5 158t28.5 103q0 51 -37.5 86t-92.5 35q-60 0 -130 -58l-11 88q75 46 150 46q102 0 166 -73q53 -60 53 -137q0 -68 -38.5 -137t-151.5 -205 q-93 -111 -127 -174t-34 -123q0 -73 40.5 -119.5t104.5 -46.5q102 0 218 95zM364 1055q42 0 69 -21.5t27 -54.5q0 -32 -27.5 -53t-68.5 -21t-68 21t-27 54q0 32 26.5 53.5t68.5 21.5z" />
<glyph unicode="&#xc0;" horiz-adv-x="1137" d="M248 464l-149 -412q-6 -17 -7 -52h-78q17 34 24 52l454 1271q5 13 9 42h116q3 -20 8 -34l471 -1279q7 -19 28 -52h-154q-2 25 -11 52l-150 412h-561zM265 519h520l-265 712zM528 1434l-199 292h130l132 -292h-63z" />
<glyph unicode="&#xc1;" horiz-adv-x="1137" d="M248 464l-149 -412q-6 -17 -7 -52h-78q17 34 24 52l454 1271q5 13 9 42h116q3 -20 8 -34l471 -1279q7 -19 28 -52h-154q-2 25 -11 52l-150 412h-561zM265 519h520l-265 712zM518 1434l137 293h128l-200 -293h-65z" />
<glyph unicode="&#xc2;" horiz-adv-x="1137" d="M248 464l-149 -412q-6 -17 -7 -52h-78q17 34 24 52l454 1271q5 13 9 42h116q3 -20 8 -34l471 -1279q7 -19 28 -52h-154q-2 25 -11 52l-150 412h-561zM265 519h520l-265 712zM266 1461l245 251h103l230 -251h-109l-172 192l-183 -192h-114z" />
<glyph unicode="&#xc3;" horiz-adv-x="1137" d="M248 464l-149 -412q-6 -17 -7 -52h-78q17 34 24 52l454 1271q5 13 9 42h116q3 -20 8 -34l471 -1279q7 -19 28 -52h-154q-2 25 -11 52l-150 412h-561zM265 519h520l-265 712zM295 1533v105q94 31 154 31q51 0 214 -42q36 -9 58 -9q39 0 95 37v-107q-58 -23 -97 -23 q-28 0 -161 34q-75 19 -121 19q-57 0 -142 -45z" />
<glyph unicode="&#xc4;" horiz-adv-x="1137" d="M248 464l-149 -412q-6 -17 -7 -52h-78q17 34 24 52l454 1271q5 13 9 42h116q3 -20 8 -34l471 -1279q7 -19 28 -52h-154q-2 25 -11 52l-150 412h-561zM265 519h520l-265 712zM351 1638q41 0 68 -23t27 -58q0 -36 -26.5 -59.5t-67.5 -23.5q-43 0 -70 23t-27 59 q0 35 27.5 58.5t68.5 23.5zM760 1642q42 0 68.5 -23t26.5 -58q0 -36 -26.5 -59.5t-67.5 -23.5q-43 0 -70 23t-27 59q0 35 27.5 58.5t68.5 23.5z" />
<glyph unicode="&#xc5;" horiz-adv-x="1137" d="M248 464l-149 -412q-6 -17 -7 -52h-78q17 34 24 52l454 1271q5 13 9 42h116q3 -20 8 -34l471 -1279q7 -19 28 -52h-154q-2 25 -11 52l-150 412h-561zM265 519h520l-265 712zM554 1777q69 0 116.5 -48t47.5 -117t-48 -117t-116 -48t-114 48q-48 50 -48 119q0 66 47.5 114 t114.5 49zM554 1707q-40 0 -68.5 -28t-28.5 -66q0 -40 28.5 -68t68.5 -28q41 0 69.5 27.5t28.5 67.5t-28.5 67t-69.5 28z" />
<glyph unicode="&#xc6;" horiz-adv-x="1592" d="M1481 1365v-71q-29 10 -60 10h-441v-576h426q42 0 76 10v-70q-26 5 -74 5h-428v-605h429q16 1 73 10v-78h-636q7 29 7 64v397h-510l-251 -409q-20 -31 -28 -52h-75q17 23 52 81l741 1210q21 35 32 74h667zM853 520v785l-479 -785h479z" />
<glyph unicode="&#xc7;" horiz-adv-x="1121" d="M1063 1326v-136q-85 71 -153.5 98t-163.5 27q-263 0 -394 -193q-120 -175 -120 -434q0 -276 139 -452q141 -179 380 -179q98 0 165.5 31.5t146.5 114.5v-135q-84 -48 -155.5 -67t-170.5 -19q-295 0 -462 172q-184 189 -184 538q0 308 159 487q181 205 517 205 q155 0 296 -58zM511 -406l90 310h109l-136 -310h-63z" />
<glyph unicode="&#xc8;" horiz-adv-x="909" d="M164 1365h635v-71q-29 10 -60 10h-441v-576h426q42 0 76 10v-70q-27 5 -74 5h-428v-605h429q16 1 73 10v-78h-634q5 34 5 64v1236q0 41 -7 65zM496 1434l-199 292h130l132 -292h-63z" />
<glyph unicode="&#xc9;" horiz-adv-x="909" d="M164 1365h635v-71q-29 10 -60 10h-441v-576h426q42 0 76 10v-70q-27 5 -74 5h-428v-605h429q16 1 73 10v-78h-634q5 34 5 64v1236q0 41 -7 65zM432 1434l137 293h128l-200 -293h-65z" />
<glyph unicode="&#xca;" horiz-adv-x="909" d="M164 1365h635v-71q-29 10 -60 10h-441v-576h426q42 0 76 10v-70q-27 5 -74 5h-428v-605h429q16 1 73 10v-78h-634q5 34 5 64v1236q0 41 -7 65zM186 1461l245 251h103l230 -251h-109l-172 192l-183 -192h-114z" />
<glyph unicode="&#xcb;" horiz-adv-x="909" d="M164 1365h635v-71q-29 10 -60 10h-441v-576h426q42 0 76 10v-70q-27 5 -74 5h-428v-605h429q16 1 73 10v-78h-634q5 34 5 64v1236q0 41 -7 65zM278 1638q41 0 68 -23t27 -58q0 -36 -26.5 -59.5t-67.5 -23.5q-43 0 -70 23t-27 59q0 35 27.5 58.5t68.5 23.5zM687 1642 q42 0 68.5 -23t26.5 -58q0 -36 -26.5 -59.5t-67.5 -23.5q-43 0 -70 23t-27 59q0 35 27.5 58.5t68.5 23.5z" />
<glyph unicode="&#xcc;" horiz-adv-x="496" d="M177 1365h141q-7 -23 -7 -64v-1237q0 -41 7 -64h-141q7 33 7 64v1237q0 31 -7 64zM234 1434l-199 292h130l132 -292h-63z" />
<glyph unicode="&#xcd;" horiz-adv-x="496" d="M177 1365h141q-7 -23 -7 -64v-1237q0 -41 7 -64h-141q7 33 7 64v1237q0 31 -7 64zM197 1434l137 293h128l-200 -293h-65z" />
<glyph unicode="&#xce;" horiz-adv-x="496" d="M177 1365h141q-7 -23 -7 -64v-1237q0 -41 7 -64h-141q7 33 7 64v1237q0 31 -7 64zM13 1461l191 251h103l175 -251h-109l-118 192l-128 -192h-114z" />
<glyph unicode="&#xcf;" horiz-adv-x="496" d="M177 1365h141q-7 -23 -7 -64v-1237q0 -41 7 -64h-141q7 33 7 64v1237q0 31 -7 64zM112 1638q41 0 68 -23t27 -58q0 -36 -26.5 -59.5t-67.5 -23.5q-43 0 -70 23t-27 59q0 35 27.5 58.5t68.5 23.5zM385 1642q41 0 68 -23t27 -58q0 -36 -26.5 -59.5t-67.5 -23.5 q-43 0 -70 23t-27 59q0 35 27.5 58.5t68.5 23.5z" />
<glyph unicode="&#xd0;" horiz-adv-x="1305" d="M170 671h-169v64h169v566q0 31 -7 64h355q200 0 351 -73q163 -79 248 -229q92 -163 92 -372q0 -230 -107 -404q-53 -86 -142 -155t-192 -103q-89 -29 -219 -29h-386q7 33 7 65v606zM297 671v-593h244q204 0 329 107q92 79 135 184q63 153 63 329q0 258 -116 395 q-169 200 -460 200h-195v-558h296v-64h-296z" />
<glyph unicode="&#xd1;" horiz-adv-x="1361" d="M224 1244v-1180q0 -31 7 -64h-74q7 33 7 64v1237q0 31 -7 64h140q5 -19 19 -38l819 -1167v1141q0 31 -7 64h74q-7 -33 -7 -64v-1244q0 -39 9 -57h-111q-6 16 -26 44zM447 1533v105q94 31 154 31q51 0 214 -42q36 -9 58 -9q39 0 95 37v-107q-58 -23 -97 -23q-28 0 -161 34 q-75 19 -121 19q-57 0 -142 -45z" />
<glyph unicode="&#xd2;" horiz-adv-x="1490" d="M745 1383q304 0 473 -179q176 -184 176 -520q0 -337 -176 -523q-168 -179 -469 -179q-321 0 -487 188q-166 189 -166 526q0 322 176 508q165 176 473 179zM739 1315q-258 0 -387 -188q-115 -166 -115 -434q0 -287 115 -456q128 -187 396 -187q250 0 382 176 q123 165 123 457q0 294 -123 456q-70 92 -161 132q-96 43 -230 44zM745 1434l-199 292h130l132 -292h-63z" />
<glyph unicode="&#xd3;" horiz-adv-x="1490" d="M745 1383q304 0 473 -179q176 -184 176 -520q0 -337 -176 -523q-168 -179 -469 -179q-321 0 -487 188q-166 189 -166 526q0 322 176 508q165 176 473 179zM739 1315q-258 0 -387 -188q-115 -166 -115 -434q0 -287 115 -456q128 -187 396 -187q250 0 382 176 q123 165 123 457q0 294 -123 456q-70 92 -161 132q-96 43 -230 44zM654 1434l137 293h128l-200 -293h-65z" />
<glyph unicode="&#xd4;" horiz-adv-x="1490" d="M745 1383q304 0 473 -179q176 -184 176 -520q0 -337 -176 -523q-168 -179 -469 -179q-321 0 -487 188q-166 189 -166 526q0 322 176 508q165 176 473 179zM739 1315q-258 0 -387 -188q-115 -166 -115 -434q0 -287 115 -456q128 -187 396 -187q250 0 382 176 q123 165 123 457q0 294 -123 456q-70 92 -161 132q-96 43 -230 44zM456 1461l245 251h103l230 -251h-109l-172 192l-183 -192h-114z" />
<glyph unicode="&#xd5;" horiz-adv-x="1490" d="M745 1383q304 0 473 -179q176 -184 176 -520q0 -337 -176 -523q-168 -179 -469 -179q-321 0 -487 188q-166 189 -166 526q0 322 176 508q165 176 473 179zM739 1315q-258 0 -387 -188q-115 -166 -115 -434q0 -287 115 -456q128 -187 396 -187q250 0 382 176 q123 165 123 457q0 294 -123 456q-70 92 -161 132q-96 43 -230 44zM485 1533v105q94 31 154 31q51 0 214 -42q36 -9 58 -9q39 0 95 37v-107q-58 -23 -97 -23q-28 0 -161 34q-75 19 -121 19q-57 0 -142 -45z" />
<glyph unicode="&#xd6;" horiz-adv-x="1490" d="M745 1383q304 0 473 -179q176 -184 176 -520q0 -337 -176 -523q-168 -179 -469 -179q-321 0 -487 188q-166 189 -166 526q0 322 176 508q165 176 473 179zM739 1315q-258 0 -387 -188q-115 -166 -115 -434q0 -287 115 -456q128 -187 396 -187q250 0 382 176 q123 165 123 457q0 294 -123 456q-70 92 -161 132q-96 43 -230 44zM541 1638q41 0 68 -23t27 -58q0 -36 -26.5 -59.5t-67.5 -23.5q-43 0 -70 23t-27 59q0 35 27.5 58.5t68.5 23.5zM950 1642q42 0 68.5 -23t26.5 -58q0 -36 -26.5 -59.5t-67.5 -23.5q-43 0 -70 23t-27 59 q0 35 27.5 58.5t68.5 23.5z" />
<glyph unicode="&#xd7;" horiz-adv-x="975" d="M488 632l-284 -284l-51 51l284 284l-284 284l51 51l284 -284l284 284l51 -51l-284 -284l284 -284l-51 -51z" />
<glyph unicode="&#xd8;" horiz-adv-x="1490" d="M1219 1204l161 161h96l-214 -213q132 -178 132 -470q0 -335 -176 -521q-167 -179 -470 -179q-308 0 -477 179l-161 -161h-96l214 213q-132 186 -132 474q0 330 176 517q166 179 472 179q302 0 475 -179zM1127 1142q-44 58 -93 92q-112 81 -290 81q-263 0 -392 -187 q-115 -168 -115 -443q0 -244 87 -404zM1166 1084l-804 -861q132 -173 385 -173q251 0 383 176q123 165 123 455q0 250 -87 403z" />
<glyph unicode="&#xd9;" horiz-adv-x="1341" d="M1190 1365q-7 -27 -7 -64v-865q0 -151 -67 -257q-74 -118 -203 -160q-115 -37 -252 -37q-212 0 -328 81q-82 57 -128 148.5t-46 198.5v891q0 31 -7 64h141q-7 -33 -7 -64v-882q0 -118 54 -206q103 -167 358 -167q246 0 354 150q74 103 74 258v847q0 34 -7 64h71z M698 1434l-199 292h130l132 -292h-63z" />
<glyph unicode="&#xda;" horiz-adv-x="1341" d="M1190 1365q-7 -27 -7 -64v-865q0 -151 -67 -257q-74 -118 -203 -160q-115 -37 -252 -37q-212 0 -328 81q-82 57 -128 148.5t-46 198.5v891q0 31 -7 64h141q-7 -33 -7 -64v-882q0 -118 54 -206q103 -167 358 -167q246 0 354 150q74 103 74 258v847q0 34 -7 64h71z M620 1434l137 293h128l-200 -293h-65z" />
<glyph unicode="&#xdb;" horiz-adv-x="1341" d="M1190 1365q-7 -27 -7 -64v-865q0 -151 -67 -257q-74 -118 -203 -160q-115 -37 -252 -37q-212 0 -328 81q-82 57 -128 148.5t-46 198.5v891q0 31 -7 64h141q-7 -33 -7 -64v-882q0 -118 54 -206q103 -167 358 -167q246 0 354 150q74 103 74 258v847q0 34 -7 64h71z M395 1461l245 251h103l230 -251h-109l-172 192l-183 -192h-114z" />
<glyph unicode="&#xdc;" horiz-adv-x="1341" d="M1190 1365q-7 -27 -7 -64v-865q0 -151 -67 -257q-74 -118 -203 -160q-115 -37 -252 -37q-212 0 -328 81q-82 57 -128 148.5t-46 198.5v891q0 31 -7 64h141q-7 -33 -7 -64v-882q0 -118 54 -206q103 -167 358 -167q246 0 354 150q74 103 74 258v847q0 34 -7 64h71z M487 1638q41 0 68 -23t27 -58q0 -36 -26.5 -59.5t-67.5 -23.5q-43 0 -70 23t-27 59q0 35 27.5 58.5t68.5 23.5zM896 1642q42 0 68.5 -23t26.5 -58q0 -36 -26.5 -59.5t-67.5 -23.5q-43 0 -70 23t-27 59q0 35 27.5 58.5t68.5 23.5z" />
<glyph unicode="&#xdd;" horiz-adv-x="859" d="M365 613l-369 702q-17 33 -30 50h153q4 -15 24 -55l323 -619l330 623q13 25 21 51h77q-16 -22 -28 -44l-374 -708v-549q0 -31 7 -64h-141q7 33 7 64v549zM393 1434l137 293h128l-200 -293h-65z" />
<glyph unicode="&#xde;" horiz-adv-x="987" d="M298 369v-304q0 -32 7 -65h-141q7 33 7 65v1234q0 32 -7 66h141q-7 -23 -7 -64v-195h225q137 0 248 -58q177 -92 177 -297q0 -164 -113 -264q-131 -118 -370 -118h-167zM298 430h160q119 0 190 32q77 34 121 106q48 79 48 175q0 140 -89.5 221t-243.5 81h-186v-615z" />
<glyph unicode="&#xdf;" horiz-adv-x="1080" d="M445 40v137q64 -67 107.5 -91t101.5 -24q107 0 176 86q70 89 70 192q0 86 -65.5 187.5t-183.5 198.5q-84 70 -84 115q0 24 26 70q75 132 91.5 176t16.5 107q0 108 -61 174q-64 70 -163 70q-107 0 -177 -71q-56 -58 -56 -159v-1208h-112q6 34 6 64v1128q0 105 39 162 q44 66 128.5 104t188.5 38q137 0 227 -72q98 -79 98 -198q0 -102 -83 -226q-39 -59 -48.5 -77.5t-9.5 -35.5q0 -28 20 -51t141 -134q93 -85 131.5 -164.5t38.5 -185.5q0 -158 -95 -262q-98 -108 -248 -108q-117 0 -221 58z" />
<glyph unicode="&#xe0;" horiz-adv-x="967" d="M699 174q-72 -90 -130 -127q-104 -65 -229 -65q-119 0 -196 67q-91 81 -91 220q0 178 145 260q60 34 105 50.5t257 79.5q76 23 107.5 57.5t31.5 95.5q0 74 -59.5 121.5t-154.5 47.5q-77 0 -138.5 -25.5t-148.5 -94.5l-29 97q105 57 173.5 77t163.5 20q143 0 224 -58.5 t81 -161.5v-661q0 -106 68 -106q27 0 75 34v-80q-61 -40 -115 -40q-70 0 -104 47t-36 145zM699 657q-88 -50 -281 -109q-142 -42 -193 -106q-55 -70 -55 -156q0 -99 59.5 -160.5t155.5 -61.5q163 0 256 134q58 84 58 175v284zM483 1161l-199 291h130l132 -291h-63z" />
<glyph unicode="&#xe1;" horiz-adv-x="967" d="M699 174q-72 -90 -130 -127q-104 -65 -229 -65q-119 0 -196 67q-91 81 -91 220q0 178 145 260q60 34 105 50.5t257 79.5q76 23 107.5 57.5t31.5 95.5q0 74 -59.5 121.5t-154.5 47.5q-77 0 -138.5 -25.5t-148.5 -94.5l-29 97q105 57 173.5 77t163.5 20q143 0 224 -58.5 t81 -161.5v-661q0 -106 68 -106q27 0 75 34v-80q-61 -40 -115 -40q-70 0 -104 47t-36 145zM699 657q-88 -50 -281 -109q-142 -42 -193 -106q-55 -70 -55 -156q0 -99 59.5 -160.5t155.5 -61.5q163 0 256 134q58 84 58 175v284zM433 1161l137 293h128l-200 -293h-65z" />
<glyph unicode="&#xe2;" horiz-adv-x="967" d="M699 174q-72 -90 -130 -127q-104 -65 -229 -65q-119 0 -196 67q-91 81 -91 220q0 178 145 260q60 34 105 50.5t257 79.5q76 23 107.5 57.5t31.5 95.5q0 74 -59.5 121.5t-154.5 47.5q-77 0 -138.5 -25.5t-148.5 -94.5l-29 97q105 57 173.5 77t163.5 20q143 0 224 -58.5 t81 -161.5v-661q0 -106 68 -106q27 0 75 34v-80q-61 -40 -115 -40q-70 0 -104 47t-36 145zM699 657q-88 -50 -281 -109q-142 -42 -193 -106q-55 -70 -55 -156q0 -99 59.5 -160.5t155.5 -61.5q163 0 256 134q58 84 58 175v284zM221 1161l218 292h103l203 -292h-109l-146 233 l-155 -233h-114z" />
<glyph unicode="&#xe3;" horiz-adv-x="967" d="M699 174q-72 -90 -130 -127q-104 -65 -229 -65q-119 0 -196 67q-91 81 -91 220q0 178 145 260q60 34 105 50.5t257 79.5q76 23 107.5 57.5t31.5 95.5q0 74 -59.5 121.5t-154.5 47.5q-77 0 -138.5 -25.5t-148.5 -94.5l-29 97q105 57 173.5 77t163.5 20q143 0 224 -58.5 t81 -161.5v-661q0 -106 68 -106q27 0 75 34v-80q-61 -40 -115 -40q-70 0 -104 47t-36 145zM699 657q-88 -50 -281 -109q-142 -42 -193 -106q-55 -70 -55 -156q0 -99 59.5 -160.5t155.5 -61.5q163 0 256 134q58 84 58 175v284zM227 1246v105q68 31 138 31q61 0 235 -41 q38 -9 65 -9q36 0 74 36v-107q-44 -22 -79 -22q-36 0 -173 36q-68 17 -126 17q-65 0 -134 -46z" />
<glyph unicode="&#xe4;" horiz-adv-x="967" d="M699 174q-72 -90 -130 -127q-104 -65 -229 -65q-119 0 -196 67q-91 81 -91 220q0 178 145 260q60 34 105 50.5t257 79.5q76 23 107.5 57.5t31.5 95.5q0 74 -59.5 121.5t-154.5 47.5q-77 0 -138.5 -25.5t-148.5 -94.5l-29 97q105 57 173.5 77t163.5 20q143 0 224 -58.5 t81 -161.5v-661q0 -106 68 -106q27 0 75 34v-80q-61 -40 -115 -40q-70 0 -104 47t-36 145zM699 657q-88 -50 -281 -109q-142 -42 -193 -106q-55 -70 -55 -156q0 -99 59.5 -160.5t155.5 -61.5q163 0 256 134q58 84 58 175v284zM279 1351q41 0 68 -23t27 -58 q0 -36 -26.5 -59.5t-67.5 -23.5q-43 0 -70 23t-27 59q0 35 27.5 58.5t68.5 23.5zM688 1355q42 0 68.5 -23t26.5 -58q0 -36 -26.5 -59.5t-67.5 -23.5q-43 0 -70 23t-27 59q0 35 27.5 58.5t68.5 23.5z" />
<glyph unicode="&#xe5;" horiz-adv-x="967" d="M699 174q-72 -90 -130 -127q-104 -65 -229 -65q-119 0 -196 67q-91 81 -91 220q0 178 145 260q60 34 105 50.5t257 79.5q76 23 107.5 57.5t31.5 95.5q0 74 -59.5 121.5t-154.5 47.5q-77 0 -138.5 -25.5t-148.5 -94.5l-29 97q105 57 173.5 77t163.5 20q143 0 224 -58.5 t81 -161.5v-661q0 -106 68 -106q27 0 75 34v-80q-61 -40 -115 -40q-70 0 -104 47t-36 145zM699 657q-88 -50 -281 -109q-142 -42 -193 -106q-55 -70 -55 -156q0 -99 59.5 -160.5t155.5 -61.5q163 0 256 134q58 84 58 175v284zM482 1490q69 0 116.5 -48t47.5 -117 q0 -68 -48 -116t-116 -48t-114 47q-48 51 -48 119q0 66 47.5 114t114.5 49zM482 1420q-40 0 -68.5 -28t-28.5 -66q0 -39 28.5 -67t68.5 -28q41 0 69.5 27.5t28.5 67.5q0 39 -28.5 66t-69.5 28z" />
<glyph unicode="&#xe6;" horiz-adv-x="1627" d="M1550 584h-753q0 -141 17 -219q32 -153 113 -232q88 -85 250 -85q154 0 294 112l29 -92q-164 -86 -327 -86q-125 0 -214 35.5t-159 114.5q-44 49 -71 115q-150 -265 -397 -265q-116 0 -190 67q-89 80 -89 220q0 178 140 260q58 34 102 50t249 80q74 23 104.5 57.5 t30.5 95.5q0 75 -57.5 122t-148.5 47q-74 0 -133 -25.5t-142 -94.5l-29 97q101 57 167.5 77t159.5 20q122 0 197 -45t93 -129q33 52 76 86q111 88 265 88q146 0 251 -86q153 -123 172 -385zM679 657q-85 -50 -271 -109q-136 -43 -185 -107q-53 -69 -53 -155q0 -100 57 -161 t150 -61q157 0 246 134q56 85 56 175v284zM804 635h624q-9 88 -31 149q-37 103 -116 162q-65 48 -156 48q-114 0 -201 -82q-94 -91 -120 -277z" />
<glyph unicode="&#xe7;" horiz-adv-x="874" d="M814 68q-78 -48 -142.5 -67t-145.5 -19q-213 0 -325 138q-111 139 -111 372q0 293 155 444q123 120 330 120q118 0 239 -46v-112q-75 58 -129 80t-121 22q-159 0 -250 -129q-98 -139 -98 -357q0 -182 71 -312q85 -154 257 -154q78 0 139 28.5t131 96.5v-105zM337 -405 l90 309h109l-136 -309h-63z" />
<glyph unicode="&#xe8;" horiz-adv-x="1057" d="M930 68q-167 -86 -335 -86q-260 0 -392 160q-113 137 -113 370q0 264 134 409q126 135 321 135q140 0 245 -75q170 -121 190 -397h-774q0 -141 18 -219q33 -153 117 -232q90 -85 258 -85q158 0 303 112zM213 635h646q-10 88 -32 149q-39 105 -120 162q-69 48 -161 48 q-118 0 -208 -82q-98 -90 -125 -277zM528 1161l-199 291h130l132 -291h-63z" />
<glyph unicode="&#xe9;" horiz-adv-x="1057" d="M930 68q-167 -86 -335 -86q-260 0 -392 160q-113 137 -113 370q0 264 134 409q126 135 321 135q140 0 245 -75q170 -121 190 -397h-774q0 -141 18 -219q33 -153 117 -232q90 -85 258 -85q158 0 303 112zM213 635h646q-10 88 -32 149q-39 105 -120 162q-69 48 -161 48 q-118 0 -208 -82q-98 -90 -125 -277zM464 1161l137 293h128l-200 -293h-65z" />
<glyph unicode="&#xea;" horiz-adv-x="1057" d="M930 68q-167 -86 -335 -86q-260 0 -392 160q-113 137 -113 370q0 264 134 409q126 135 321 135q140 0 245 -75q170 -121 190 -397h-774q0 -141 18 -219q33 -153 117 -232q90 -85 258 -85q158 0 303 112zM213 635h646q-10 88 -32 149q-39 105 -120 162q-69 48 -161 48 q-118 0 -208 -82q-98 -90 -125 -277zM287 1161l218 292h103l203 -292h-109l-146 233l-155 -233h-114z" />
<glyph unicode="&#xeb;" horiz-adv-x="1057" d="M930 68q-167 -86 -335 -86q-260 0 -392 160q-113 137 -113 370q0 264 134 409q126 135 321 135q140 0 245 -75q170 -121 190 -397h-774q0 -141 18 -219q33 -153 117 -232q90 -85 258 -85q158 0 303 112zM213 635h646q-10 88 -32 149q-39 105 -120 162q-69 48 -161 48 q-118 0 -208 -82q-98 -90 -125 -277zM338 1351q41 0 68 -23t27 -58q0 -36 -26.5 -59.5t-67.5 -23.5q-43 0 -70 23t-27 59q0 35 27.5 58.5t68.5 23.5zM747 1355q42 0 68.5 -23t26.5 -58q0 -36 -26.5 -59.5t-67.5 -23.5q-43 0 -70 23t-27 59q0 35 27.5 58.5t68.5 23.5z" />
<glyph unicode="&#xec;" horiz-adv-x="437" d="M154 1035h124q-6 -34 -6 -64v-907q0 -30 6 -64h-124q6 34 6 64v907q0 30 -6 64zM191 1161l-199 291h130l132 -291h-63z" />
<glyph unicode="&#xed;" horiz-adv-x="437" d="M154 1035h124q-6 -34 -6 -64v-907q0 -30 6 -64h-124q6 34 6 64v907q0 30 -6 64zM181 1161l137 293h128l-200 -293h-65z" />
<glyph unicode="&#xee;" horiz-adv-x="437" d="M154 1035h124q-6 -34 -6 -64v-907q0 -30 6 -64h-124q6 34 6 64v907q0 30 -6 64zM-2 1161l177 292h103l162 -292h-109l-105 233l-114 -233h-114z" />
<glyph unicode="&#xef;" horiz-adv-x="437" d="M154 1035h124q-6 -34 -6 -64v-907q0 -30 6 -64h-124q6 34 6 64v907q0 30 -6 64zM83 1351q41 0 68 -23t27 -58q0 -36 -26.5 -59.5t-67.5 -23.5q-43 0 -70 23t-27 59q0 35 27.5 58.5t68.5 23.5zM356 1355q41 0 68 -23t27 -58q0 -36 -26.5 -59.5t-67.5 -23.5q-43 0 -70 23 t-27 59q0 35 27.5 58.5t68.5 23.5z" />
<glyph unicode="&#xf0;" horiz-adv-x="1106" d="M653 1328l-132 -152l-42 37l123 141q-74 34 -169 54l26 53q109 -21 188 -55l122 140l42 -36l-112 -129q109 -58 164 -135q78 -109 111 -268q42 -198 42 -403q0 -161 -29 -264t-97 -181q-128 -148 -337 -148q-145 0 -255 73q-115 76 -168 231q-40 115 -40 245 q0 221 117 367q125 157 344 157q110 0 185 -36t152 -126q-26 181 -77.5 276t-157.5 159zM553 1007q-147 0 -239 -120q-106 -140 -106 -363q0 -236 109 -376q91 -118 237 -118q143 0 235 118q109 139 109 371q0 234 -108 370q-93 116 -237 118z" />
<glyph unicode="&#xf1;" horiz-adv-x="1097" d="M143 1035h118v-172q41 79 92 119q94 73 245 73q189 0 288 -114q61 -71 61 -193v-684q0 -30 6 -64h-124q6 24 6 64v681q0 106 -68.5 165t-191.5 59q-152 0 -230 -82q-84 -88 -84 -231v-592q0 -30 6 -64h-124q6 30 6 64v907q0 30 -6 64zM319 1246v105q68 31 138 31 q61 0 235 -41q38 -9 65 -9q36 0 74 36v-107q-44 -22 -79 -22q-36 0 -173 36q-68 17 -126 17q-65 0 -134 -46z" />
<glyph unicode="&#xf2;" horiz-adv-x="1106" d="M553 1055q229 0 355 -168q108 -143 108 -370q0 -242 -125 -387q-128 -148 -337 -148q-146 0 -256 73q-115 76 -168 231q-40 115 -40 250q0 217 117 362q124 154 346 157zM554 1007q-147 0 -239 -120q-107 -139 -107 -363q0 -236 109 -376q92 -118 237 -118q144 0 236 118 q109 139 109 371q0 234 -108 370q-93 116 -237 118zM553 1161l-199 291h130l132 -291h-63z" />
<glyph unicode="&#xf3;" horiz-adv-x="1106" d="M553 1055q229 0 355 -168q108 -143 108 -370q0 -242 -125 -387q-128 -148 -337 -148q-146 0 -256 73q-115 76 -168 231q-40 115 -40 250q0 217 117 362q124 154 346 157zM554 1007q-147 0 -239 -120q-107 -139 -107 -363q0 -236 109 -376q92 -118 237 -118q144 0 236 118 q109 139 109 371q0 234 -108 370q-93 116 -237 118zM461 1161l137 293h128l-200 -293h-65z" />
<glyph unicode="&#xf4;" horiz-adv-x="1106" d="M553 1055q229 0 355 -168q108 -143 108 -370q0 -242 -125 -387q-128 -148 -337 -148q-146 0 -256 73q-115 76 -168 231q-40 115 -40 250q0 217 117 362q124 154 346 157zM554 1007q-147 0 -239 -120q-107 -139 -107 -363q0 -236 109 -376q92 -118 237 -118q144 0 236 118 q109 139 109 371q0 234 -108 370q-93 116 -237 118zM291 1161l218 292h103l203 -292h-109l-146 233l-155 -233h-114z" />
<glyph unicode="&#xf5;" horiz-adv-x="1106" d="M553 1055q229 0 355 -168q108 -143 108 -370q0 -242 -125 -387q-128 -148 -337 -148q-146 0 -256 73q-115 76 -168 231q-40 115 -40 250q0 217 117 362q124 154 346 157zM554 1007q-147 0 -239 -120q-107 -139 -107 -363q0 -236 109 -376q92 -118 237 -118q144 0 236 118 q109 139 109 371q0 234 -108 370q-93 116 -237 118zM297 1246v105q68 31 138 31q61 0 235 -41q38 -9 65 -9q36 0 74 36v-107q-44 -22 -79 -22q-36 0 -173 36q-68 17 -126 17q-65 0 -134 -46z" />
<glyph unicode="&#xf6;" horiz-adv-x="1106" d="M553 1055q229 0 355 -168q108 -143 108 -370q0 -242 -125 -387q-128 -148 -337 -148q-146 0 -256 73q-115 76 -168 231q-40 115 -40 250q0 217 117 362q124 154 346 157zM554 1007q-147 0 -239 -120q-107 -139 -107 -363q0 -236 109 -376q92 -118 237 -118q144 0 236 118 q109 139 109 371q0 234 -108 370q-93 116 -237 118zM349 1351q41 0 68 -23t27 -58q0 -36 -26.5 -59.5t-67.5 -23.5q-43 0 -70 23t-27 59q0 35 27.5 58.5t68.5 23.5zM758 1355q42 0 68.5 -23t26.5 -58q0 -36 -26.5 -59.5t-67.5 -23.5q-43 0 -70 23t-27 59q0 35 27.5 58.5 t68.5 23.5z" />
<glyph unicode="&#xf7;" horiz-adv-x="975" d="M90 647v72h795v-72h-795zM487 1031q42 0 69 -21t27 -54q0 -32 -27 -53.5t-68 -21.5q-42 0 -69 21.5t-27 54.5q0 32 27 53t68 21zM487 485q42 0 69 -21t27 -54q0 -32 -27 -53.5t-68 -21.5q-42 0 -69 21.5t-27 54.5q0 32 27 53t68 21z" />
<glyph unicode="&#xf8;" horiz-adv-x="1106" d="M900 898l113 115h78l-159 -161q84 -140 84 -335q0 -242 -125 -387q-129 -148 -337 -148q-210 0 -337 144l-124 -126h-78l169 172q-94 151 -94 359q0 221 117 367q126 157 345 157q218 0 348 -157zM823 841q-101 166 -269 166q-148 0 -239 -120q-107 -140 -107 -368 q0 -166 56 -286zM850 789l-558 -607q101 -152 261 -152q145 0 237 118q109 140 109 369q0 155 -49 272z" />
<glyph unicode="&#xf9;" horiz-adv-x="1089" d="M827 0v166q-53 -87 -110 -126q-85 -58 -217 -58q-174 0 -272 97q-79 80 -79 227v665q0 30 -6 64h124q-6 -34 -6 -64v-658q0 -103 52 -166q66 -79 203 -79q166 0 254 109q57 70 57 170v624q0 30 -6 64h124q-6 -34 -6 -64v-907q0 -30 6 -64h-118zM557 1161l-199 291h130 l132 -291h-63z" />
<glyph unicode="&#xfa;" horiz-adv-x="1089" d="M827 0v166q-53 -87 -110 -126q-85 -58 -217 -58q-174 0 -272 97q-79 80 -79 227v665q0 30 -6 64h124q-6 -34 -6 -64v-658q0 -103 52 -166q66 -79 203 -79q166 0 254 109q57 70 57 170v624q0 30 -6 64h124q-6 -34 -6 -64v-907q0 -30 6 -64h-118zM466 1161l137 293h128 l-200 -293h-65z" />
<glyph unicode="&#xfb;" horiz-adv-x="1089" d="M827 0v166q-53 -87 -110 -126q-85 -58 -217 -58q-174 0 -272 97q-79 80 -79 227v665q0 30 -6 64h124q-6 -34 -6 -64v-658q0 -103 52 -166q66 -79 203 -79q166 0 254 109q57 70 57 170v624q0 30 -6 64h124q-6 -34 -6 -64v-907q0 -30 6 -64h-118zM282 1161l218 292h103 l203 -292h-109l-146 233l-155 -233h-114z" />
<glyph unicode="&#xfc;" horiz-adv-x="1089" d="M827 0v166q-53 -87 -110 -126q-85 -58 -217 -58q-174 0 -272 97q-79 80 -79 227v665q0 30 -6 64h124q-6 -34 -6 -64v-658q0 -103 52 -166q66 -79 203 -79q166 0 254 109q57 70 57 170v624q0 30 -6 64h124q-6 -34 -6 -64v-907q0 -30 6 -64h-118zM340 1351q41 0 68 -23 t27 -58q0 -36 -26.5 -59.5t-67.5 -23.5q-43 0 -70 23t-27 59q0 35 27.5 58.5t68.5 23.5zM749 1355q42 0 68.5 -23t26.5 -58q0 -36 -26.5 -59.5t-67.5 -23.5q-43 0 -70 23t-27 59q0 35 27.5 58.5t68.5 23.5z" />
<glyph unicode="&#xfd;" horiz-adv-x="846" d="M361 0l-347 980q-18 44 -21 55h125q2 -9 15 -55l290 -823l346 823q7 18 18 55h72q-4 -10 -25 -55l-521 -1253q-6 -15 -18 -55h-72q4 10 25 55zM331 1161l137 293h128l-200 -293h-65z" />
<glyph unicode="&#xfe;" horiz-adv-x="1080" d="M261 144v-408q0 -30 6 -64h-124q6 34 6 64v1672q0 30 -6 64h124q-6 -34 -6 -64v-554q129 202 338 202q157 0 267 -118q65 -69 94.5 -162t29.5 -230q0 -281 -128 -432q-52 -61 -130.5 -96.5t-163.5 -35.5q-185 0 -307 162zM586 970q-148 0 -242 -112q-49 -58 -67.5 -133 t-18.5 -210q0 -211 42 -294q86 -173 267 -173q154 0 233 143q73 132 73 335q0 436 -287 444z" />
<glyph unicode="&#xff;" horiz-adv-x="846" d="M361 0l-347 980q-18 44 -21 55h125q2 -9 15 -55l290 -823l346 823q7 18 18 55h72q-4 -10 -25 -55l-521 -1253q-6 -15 -18 -55h-72q4 10 25 55zM219 1351q41 0 68 -23t27 -58q0 -36 -26.5 -59.5t-67.5 -23.5q-43 0 -70 23t-27 59q0 35 27.5 58.5t68.5 23.5zM628 1355 q42 0 68.5 -23t26.5 -58q0 -36 -26.5 -59.5t-67.5 -23.5q-43 0 -70 23t-27 59q0 35 27.5 58.5t68.5 23.5z" />
<glyph unicode="&#x106;" horiz-adv-x="1121" d="M619 1434l137 293h128l-200 -293h-65zM1063 1326v-136q-85 71 -153.5 98t-163.5 27q-263 0 -394 -193q-120 -175 -120 -434q0 -276 139 -452q141 -179 380 -179q97 0 165.5 32t146.5 114v-135q-84 -48 -155.5 -67t-170.5 -19q-295 0 -462 172q-184 189 -184 538 q0 308 159 487q181 205 517 205q154 0 296 -58z" />
<glyph unicode="&#x107;" horiz-adv-x="874" d="M455 1161l137 293h128l-200 -293h-65zM814 68q-78 -48 -142.5 -67t-145.5 -19q-214 0 -325 138q-111 139 -111 372q0 293 155 444q123 120 330 120q120 0 239 -46v-112q-75 58 -129 80t-121 22q-159 0 -250 -129q-98 -139 -98 -357q0 -182 71 -312q85 -154 257 -154 q78 0 139.5 28.5t130.5 96.5v-105z" />
<glyph unicode="&#x10c;" horiz-adv-x="1121" d="M407 1719h114l183 -192l172 192h109l-230 -251h-103zM1063 1326v-136q-85 71 -153.5 98t-163.5 27q-263 0 -394 -193q-120 -175 -120 -434q0 -276 139 -452q141 -179 380 -179q97 0 165.5 32t146.5 114v-135q-84 -48 -155.5 -67t-170.5 -19q-295 0 -462 172 q-184 189 -184 538q0 308 159 487q181 205 517 205q154 0 296 -58z" />
<glyph unicode="&#x10d;" horiz-adv-x="874" d="M794 1453l-218 -292h-103l-203 292h109l145 -233l156 233h114zM814 68q-78 -48 -142.5 -67t-145.5 -19q-214 0 -325 138q-111 139 -111 372q0 293 155 444q123 120 330 120q120 0 239 -46v-112q-75 58 -129 80t-121 22q-159 0 -250 -129q-98 -139 -98 -357 q0 -182 71 -312q85 -154 257 -154q78 0 139.5 28.5t130.5 96.5v-105z" />
<glyph unicode="&#x111;" horiz-adv-x="1075" d="M814 1208h-304v56h304v144q0 30 -6 64h124q-6 -34 -6 -64v-144h149v-56h-149v-1144q0 -30 6 -64h-118v185q-59 -87 -103 -125q-89 -78 -231 -78q-183 0 -284 138q-106 146 -106 389q0 249 114 402q108 145 304 145q203 0 306 -163v315zM523 991q-163 0 -245 -151 q-71 -132 -71 -325q0 -203 71 -322q74 -125 227 -125q152 0 235 125q81 123 81 339q0 218 -77.5 337t-220.5 122z" />
<glyph unicode="&#x11e;" horiz-adv-x="1309" d="M926 1714h93q-16 -69 -58 -122q-90 -112 -241 -112q-102 0 -174 63t-92 171h85q53 -152 190 -152q66 0 118.5 40.5t78.5 111.5zM1128 1306v-119q-199 120 -385 120q-213 0 -352 -146q-82 -86 -115 -190q-40 -129 -40 -288q0 -109 23 -215.5t62 -173.5q78 -138 229 -199 q96 -38 210 -38q147 0 279 73v551q0 30 -6 64h139q-6 -34 -6 -64v-530q1 -40 13 -74q-160 -57 -250.5 -76t-199.5 -19q-290 0 -454 180q-180 199 -180 524q0 353 215 544q172 153 455 153q94 0 171.5 -16.5t191.5 -60.5z" />
<glyph unicode="&#x11f;" horiz-adv-x="1076" d="M748 1448h93q-17 -81 -62 -143q-96 -132 -258 -132q-110 0 -187 74t-99 201h85q59 -193 209 -193q74 0 131 50.5t88 142.5zM137 -74l-39 93l250 181q-98 49 -150 104q-100 107 -100 296q0 221 133 345q117 110 318 110q30 0 105 -2q109 23 125 169h134 q-13 -133 -179 -190q253 -109 253 -408q0 -241 -155 -362q-104 -81 -264 -89q-85 -5 -114 -12t-67 -31l-201 -128q258 66 408 66q160 0 286 -44q66 -23 105.5 -70t39.5 -103q0 -97 -106 -153t-289 -56q-238 0 -510 94v38q152 -41 244.5 -55.5t204.5 -14.5q144 0 234 42 q90 43 90 113q0 64 -93 99.5t-259 35.5q-179 0 -404 -68zM547 989q-161 0 -246 -108q-78 -100 -78 -267q0 -185 80.5 -282.5t234.5 -97.5q156 0 238 97q86 102 86 279q0 178 -82.5 277.5t-232.5 101.5z" />
<glyph unicode="&#x130;" horiz-adv-x="496" d="M248 1638q41 0 68 -23t27 -58q0 -36 -26.5 -59.5t-67.5 -23.5q-43 0 -70 23t-27 59q0 35 27.5 58.5t68.5 23.5zM177 1365h141q-7 -23 -7 -64v-1237q0 -41 7 -64h-141q7 33 7 64v1237q0 31 -7 64z" />
<glyph unicode="&#x131;" horiz-adv-x="437" d="M154 1035h124q-6 -34 -6 -64v-907q0 -30 6 -64h-124q6 34 6 64v907q0 30 -6 64z" />
<glyph unicode="&#x141;" horiz-adv-x="815" d="M170 625l-125 -105l-41 49l166 139v592q0 31 -7 65h141q-7 -34 -7 -65v-499l245 205l40 -49l-285 -239v-650h432q33 0 57 7v-75h-623q7 32 7 61v564z" />
<glyph unicode="&#x142;" horiz-adv-x="410" d="M261 886l121 101l36 -43l-157 -132v-748q0 -30 6 -64h-124q6 34 6 64v668l-122 -102l-36 43l158 133v602q0 30 -6 64h124q-6 -34 -6 -64v-522z" />
<glyph unicode="&#x152;" horiz-adv-x="1772" d="M1662 1365v-71q-29 10 -60 10h-441v-576h426q42 0 76 10v-70q-27 5 -74 5h-428v-605h428q17 1 74 10v-78h-652q-45 -1 -194 -13q-65 -5 -104 -5q-196 0 -350 102q-268 178 -268 566q0 325 178 527q181 206 488 206l304 -18h597zM1034 218v939q0 73 -72.5 116t-194.5 43 q-222 0 -354 -129q-177 -172 -177 -508q0 -327 157 -490q134 -138 364 -138q129 0 204 42q41 23 57 50t16 75z" />
<glyph unicode="&#x153;" horiz-adv-x="1818" d="M1742 584h-754q0 -141 17 -219q33 -153 113 -232q88 -85 251 -85q154 0 294 112l29 -92q-163 -86 -327 -86q-156 0 -259.5 56.5t-174.5 179.5q-133 -236 -389 -236q-142 0 -250 73q-111 76 -163 231q-39 115 -39 244q0 220 114 368q121 157 338 157q263 0 390 -237 q131 238 385 238q184 0 296.5 -125t128.5 -347zM548 1007q-148 0 -237 -120q-103 -140 -103 -373q0 -226 105 -366q90 -118 230 -118t230 118q105 139 105 371q0 234 -105 370q-88 114 -225 118zM995 635h625q-9 88 -31 149q-37 103 -116 162q-66 48 -156 48 q-114 0 -201 -82q-95 -90 -121 -277z" />
<glyph unicode="&#x15e;" horiz-adv-x="909" d="M310 -406l90 310h109l-136 -310h-63zM68 83l36 113q48 -42 83 -67q103 -72 231 -72q147 0 230 91q70 77 70 186q0 132 -104 216q-44 36 -211 121q-165 85 -236 155q-89 90 -89 215q0 101 59 184q112 158 352 158q141 0 287 -69l-35 -94q-145 95 -272 95q-130 0 -205 -81 q-63 -67 -63 -160q0 -92 61 -156t229 -148q114 -58 166 -91t87 -71q97 -106 97 -244q0 -105 -57 -196q-116 -186 -374 -186q-172 0 -342 101z" />
<glyph unicode="&#x15f;" horiz-adv-x="792" d="M269 -405l90 309h109l-136 -309h-63zM57 70l25 103q83 -70 147.5 -98t144.5 -28q118 0 183 69q60 63 60 146q0 77 -52.5 124.5t-200.5 104.5q-163 63 -219 133t-56 157q0 146 129 224q85 51 204 51q141 0 290 -72l-25 -90q-136 97 -255 97q-100 0 -163 -56t-63 -139 q0 -68 45.5 -111t171.5 -93q184 -74 248 -136t64 -166q0 -148 -120 -238q-93 -70 -248 -70t-310 88z" />
<glyph unicode="&#x160;" horiz-adv-x="909" d="M68 83l36 113q48 -42 83 -67q103 -72 231 -72q147 0 230 91q70 77 70 186q0 132 -104 216q-44 36 -211 121q-165 85 -236 155q-89 90 -89 215q0 101 59 184q112 158 352 158q141 0 287 -69l-35 -94q-145 95 -272 95q-130 0 -205 -81q-63 -67 -63 -160q0 -92 61 -156 t229 -148q114 -58 166 -91t87 -71q97 -106 97 -244q0 -105 -57 -196q-116 -186 -374 -186q-172 0 -342 101zM152 1719h114l183 -192l172 192h109l-230 -251h-103z" />
<glyph unicode="&#x161;" horiz-adv-x="792" d="M57 70l25 103q83 -70 147.5 -98t144.5 -28q118 0 183 69q60 63 60 146q0 77 -52.5 124.5t-200.5 104.5q-163 63 -219 133t-56 157q0 146 129 224q85 51 204 51q141 0 290 -72l-25 -90q-136 97 -255 97q-100 0 -163 -56t-63 -139q0 -68 45.5 -111t171.5 -93 q184 -74 248 -136t64 -166q0 -148 -120 -238q-93 -70 -248 -70t-310 88zM671 1453l-218 -292h-103l-203 292h109l145 -233l156 233h114z" />
<glyph unicode="&#x178;" horiz-adv-x="859" d="M365 613l-369 702q-17 33 -30 50h153q4 -15 24 -55l323 -619l330 623q13 25 21 51h77q-16 -22 -28 -44l-374 -708v-549q0 -31 7 -64h-141q7 33 7 64v549zM226 1638q41 0 68 -23t27 -58q0 -36 -26.5 -59.5t-67.5 -23.5q-43 0 -70 23t-27 59q0 35 27.5 58.5t68.5 23.5z M635 1642q42 0 68.5 -23t26.5 -58q0 -36 -26.5 -59.5t-67.5 -23.5q-43 0 -70 23t-27 59q0 35 27.5 58.5t68.5 23.5z" />
<glyph unicode="&#x17d;" horiz-adv-x="1009" d="M49 0v82l772 1222h-676q-10 0 -65 -4q-7 -1 -31 -2v67h911v-68l-776 -1229h686q52 0 90 8v-76h-911zM215 1719h114l183 -192l172 192h109l-230 -251h-103z" />
<glyph unicode="&#x17e;" horiz-adv-x="915" d="M42 0v77l694 891h-607q-37 0 -77 -8v75h816v-67l-697 -898h623q37 0 74 7v-77h-826zM719 1453l-218 -292h-103l-203 292h109l145 -233l156 233h114z" />
<glyph unicode="&#x192;" horiz-adv-x="975" d="M479 859h-227l11 60h226l57 320q19 110 101 170q90 66 226 66q73 0 212 -34l-46 -89q-101 57 -181 57q-84 0 -130.5 -39t-61.5 -123l-58 -328h344l-10 -60h-344l-162 -917q-20 -110 -102 -171q-88 -65 -229 -65q-78 0 -215 34l46 89q101 -57 189 -57q84 0 137 45 q39 34 54 117z" />
<glyph unicode="&#x2c6;" d="M250 1161l218 292h103l203 -292h-109l-146 233l-155 -233h-114z" />
<glyph unicode="&#x2c7;" d="M774 1453l-218 -292h-103l-203 292h109l145 -233l156 233h114z" />
<glyph unicode="&#x2c9;" d="M210 1226v92h604v-92h-604z" />
<glyph unicode="&#x2d8;" d="M722 1448h93q-17 -81 -62 -143q-96 -132 -258 -132q-110 0 -187 74t-99 201h85q59 -193 209 -193q74 0 131 50.5t88 142.5z" />
<glyph unicode="&#x2d9;" d="M513 1351q41 0 68 -23t27 -58q0 -36 -26.5 -59.5t-67.5 -23.5q-43 0 -70 23t-27 59q0 35 27.5 58.5t68.5 23.5z" />
<glyph unicode="&#x2da;" d="M511 1490q69 0 116.5 -48t47.5 -117q0 -68 -48 -116t-116 -48t-114 47q-48 51 -48 119q0 66 47.5 114t114.5 49zM511 1420q-40 0 -68.5 -28t-28.5 -66q0 -39 28.5 -67t68.5 -28q41 0 69.5 27.5t28.5 67.5q0 39 -28.5 66t-69.5 28z" />
<glyph unicode="&#x2db;" d="M849 -221v-75q-66 -36 -125 -36q-67 0 -111 41q-51 47 -51 115q0 82 91 176h83q-90 -94 -90 -163q0 -42 26.5 -68.5t69.5 -26.5q50 0 107 37z" />
<glyph unicode="&#x2dc;" d="M256 1246v105q68 31 138 31q61 0 235 -41q38 -9 65 -9q36 0 74 36v-107q-44 -22 -79 -22q-36 0 -173 36q-68 17 -126 17q-65 0 -134 -46z" />
<glyph unicode="&#x2dd;" d="M317 1174l110 235h116l-174 -235h-52zM590 1174l110 235h116l-174 -235h-52z" />
<glyph unicode="&#x3c0;" horiz-adv-x="1098" d="M187 0v889h-148v91h1020v-91h-147v-889h-110v889h-505v-889h-110z" />
<glyph unicode="&#x2013;" horiz-adv-x="1097" d="M143 491l31 98h779l-30 -98h-780z" />
<glyph unicode="&#x2014;" horiz-adv-x="1363" d="M0 491l31 98h1332l-31 -98h-1332z" />
<glyph unicode="&#x2018;" horiz-adv-x="487" d="M300 1392l77 -27l-150 -341l-118 41z" />
<glyph unicode="&#x2019;" horiz-adv-x="487" d="M259 1392l118 -41l-191 -327l-77 27z" />
<glyph unicode="&#x201a;" horiz-adv-x="487" d="M259 150l118 -41l-191 -327l-77 27z" />
<glyph unicode="&#x201c;" horiz-adv-x="726" d="M227 1024l-118 41l191 327l77 -27zM466 1024l-118 41l191 327l77 -27z" />
<glyph unicode="&#x201d;" horiz-adv-x="726" d="M259 1392l118 -41l-191 -327l-77 27zM498 1392l118 -41l-191 -327l-77 27z" />
<glyph unicode="&#x201e;" horiz-adv-x="726" d="M259 150l118 -41l-191 -327l-77 27zM498 150l118 -41l-191 -327l-77 27z" />
<glyph unicode="&#x2020;" horiz-adv-x="975" d="M547 874h277q33 0 57 7v-75q-24 7 -57 7h-277v-1104q0 -41 8 -64h-134q6 34 6 64v1104h-276q-33 0 -57 -7v75q24 -7 57 -7h276v427q0 30 -6 64h134q-8 -23 -8 -64v-427z" />
<glyph unicode="&#x2021;" horiz-adv-x="975" d="M547 901h277q33 0 57 7v-75q-24 7 -57 7h-277v-369h277q33 0 57 7v-75q-24 7 -57 7h-277v-701q0 -41 8 -64h-134q8 23 8 64v701h-278q-33 0 -57 -7v75q24 -7 57 -7h278v369h-278q-33 0 -57 -7v75q24 -7 57 -7h278v400q0 41 -8 64h134q-8 -23 -8 -64v-400z" />
<glyph unicode="&#x2022;" horiz-adv-x="1365" d="M689 978q113 0 196 -83q84 -83 84 -201t-84 -201q-82 -83 -200 -83t-200 83q-84 83 -84 200q0 121 84 202q84 83 204 83z" />
<glyph unicode="&#x2026;" horiz-adv-x="1450" d="M241 136q42 0 69 -21.5t27 -53.5t-27 -53.5t-68 -21.5q-42 0 -69 21.5t-27 54.5q0 32 27 53t68 21zM724 136q42 0 69 -21.5t27 -53.5t-27 -53.5t-68 -21.5q-42 0 -69 21.5t-27 54.5q0 32 27 53t68 21zM1209 136q41 0 68 -21t27 -54t-27 -54t-68 -21q-42 0 -69 21t-27 55 q0 32 27 53t69 21z" />
<glyph unicode="&#x2030;" horiz-adv-x="2198" d="M374 1383q66 0 125.5 -34t97.5 -93q72 -113 72 -269q0 -148 -73 -262q-37 -58 -96 -91t-126 -33q-138 0 -220 122q-72 109 -72 268q0 160 72 267q83 122 220 125zM374 1320q-78 0 -130 -79q-53 -80 -53 -241q0 -173 56 -263q46 -73 127 -73t126 73q60 100 60 249 q0 158 -60 256q-46 77 -126 78zM403 0l614 1365h82l-614 -1365h-82zM1125 764q66 0 125.5 -34t97.5 -93q72 -113 72 -269q0 -148 -73 -262q-36 -58 -95.5 -91t-126.5 -33q-138 0 -220 122q-72 109 -72 268q0 161 72 267q83 122 220 125zM1125 701q-78 0 -130 -79 q-53 -80 -53 -241q0 -174 56 -263q46 -73 127 -73t126 74q60 99 60 248q0 158 -60 256q-46 77 -126 78zM1821 764q66 0 125.5 -34t97.5 -93q72 -113 72 -269q0 -148 -73 -262q-37 -58 -96 -91t-126 -33q-139 0 -220 122q-72 109 -72 268q0 161 72 267q83 122 220 125z M1821 701q-78 0 -130 -79q-53 -81 -53 -241q0 -174 56 -263q46 -73 127 -73t126 74q60 99 60 248q0 158 -60 256q-46 77 -126 78z" />
<glyph unicode="&#x2039;" horiz-adv-x="504" d="M418 161h-107l-211 391l211 394h107l-211 -394z" />
<glyph unicode="&#x203a;" horiz-adv-x="504" d="M86 161l211 391l-211 394h107l211 -394l-211 -391h-107z" />
<glyph unicode="&#x20a3;" horiz-adv-x="1165" d="M164 1365h623v-67q-36 6 -73 6h-416v-582h256q31 0 66 8v-70q-28 7 -68 7h-254v-603q0 -31 7 -64h-141q7 33 7 64v1238q0 30 -7 63zM720 762h112v-154q34 94 91.5 131t177.5 43v-101q-137 1 -203 -68.5t-66 -215.5v-333q0 -31 6 -64h-118q6 34 6 64v633q0 31 -6 65z" />
<glyph unicode="&#x2122;" horiz-adv-x="1645" d="M-17 1365h607v-60q-42 6 -64 6h-189v-720q0 -20 6 -45h-108q6 25 6 45v720h-197q-25 0 -61 -7v61zM806 1219l-114 -635q-1 -4 -1 -8q0 -1 1 -9v-21h-61q3 13 11 44l129 737v3q0 2 -1 17v7v11h89q5 -24 7 -31l248 -678l251 682q3 7 3 15q0 5 -1 12h94q1 -7 1 -11v-5 q-1 -6 -1 -10v-2l118 -750q8 -35 10 -41h-106q5 17 5 25q0 6 -1 11l-105 655l-240 -654q-6 -17 -6 -37h-89q1 8 1 13q0 8 -3 17z" />
<glyph unicode="&#x2126;" horiz-adv-x="1365" d="M57 0v102h400q-156 88 -260 220q-142 179 -142 417q0 208 106 373q103 160 272 235q116 51 248 51q241 0 415 -156q104 -94 160 -229q54 -129 54 -275q0 -200 -103 -362.5t-299 -273.5h400v-102h-528v96q152 85 239 183q174 195 174 447q0 263 -176 434 q-140 135 -332 135q-196 0 -337 -135q-176 -169 -176 -436q0 -288 218 -491q73 -68 195 -137v-96h-528z" />
<glyph unicode="&#x2202;" d="M191 1279l14 96q157 -24 264 -70q251 -109 378 -363q104 -207 104 -458q0 -208 -93 -335q-67 -91 -172 -138q-84 -37 -176 -37q-178 0 -303 129q-134 138 -134 336q0 161 93 284q60 79 149.5 123.5t190.5 44.5q140 0 227 -72q35 -30 89 -100q-54 155 -96.5 228.5 t-120.5 144.5q-175 153 -414 187zM529 801q-121 0 -212 -71q-55 -44 -91 -111q-45 -86 -45 -184q0 -164 110 -271q96 -94 226 -94q112 0 200 75q126 107 126 301q0 172 -104 270q-87 82 -210 85z" />
<glyph unicode="&#x2206;" horiz-adv-x="1258" d="M11 0l558 1365h118l559 -1365h-1235zM164 102h928l-463 1136z" />
<glyph unicode="&#x220f;" horiz-adv-x="1365" d="M60 1536h1246v-96h-153v-1856h153v-96h-420v96h161v1856h-728v-1856h159v-96h-418v96h153v1856h-153v96z" />
<glyph unicode="&#x2211;" horiz-adv-x="1365" d="M1210 1536v-454h-107l-9 346h-895l515 -874l-515 -960h913l6 347h111v-453h-1158v124l506 942l-506 862v120h1139z" />
<glyph unicode="&#x2212;" horiz-adv-x="975" d="M90 647v72h795v-72h-795z" />
<glyph unicode="&#x2215;" horiz-adv-x="273" d="M-205 0l614 1365h69l-615 -1365h-68z" />
<glyph unicode="&#x2219;" horiz-adv-x="483" d="M241 607q42 0 69 -21t27 -54q0 -32 -27 -53.5t-68 -21.5q-42 0 -69 21.5t-27 54.5q0 32 27 53t68 21z" />
<glyph unicode="&#x221a;" horiz-adv-x="1365" d="M1365 1693v-98h-409l-489 -1595h-120l-189 625h-158v98h230l95 -306q10 -31 34 -122q33 -121 40 -152h5l54 189l58 207l112 359l242 795h495z" />
<glyph unicode="&#x221e;" horiz-adv-x="1365" d="M684 635q-54 -79 -98 -126q-107 -117 -253 -117q-139 0 -223 98q-71 85 -71 212t77 209q85 91 219 91q98 0 179 -56.5t167 -185.5q52 77 96 124q110 117 254 117q141 0 225 -100q69 -84 69 -207q0 -133 -82 -216q-84 -85 -213 -85q-100 0 -180 55.5t-166 186.5zM728 698 q78 -123 145.5 -174t150.5 -51q93 0 151.5 63t58.5 163q0 107 -71 169q-59 53 -141 53q-125 0 -229 -130q-12 -17 -39 -54.5t-26 -38.5zM637 696q-40 62 -75 105q-102 121 -223 121q-93 0 -151 -63t-58 -163q0 -109 71 -171q59 -53 141 -53q127 0 229 131q13 17 39.5 54.5 t26.5 38.5z" />
<glyph unicode="&#x222b;" d="M230 -490l27 108q43 -21 79 -21q77 0 101 58q14 34 14 185v1325q0 183 16 237q19 61 75.5 97.5t134.5 36.5q43 0 118 -22l-28 -108q-45 21 -81 21q-73 0 -97 -54q-16 -37 -16 -161v-1378q0 -124 -7.5 -170.5t-31.5 -81.5q-31 -42 -88.5 -67.5t-120.5 -25.5q-38 0 -95 21z " />
<glyph unicode="&#x2248;" d="M92 712l-69 47q40 78 79 123q81 94 190 94q79 0 236 -82q88 -46 127.5 -60.5t78.5 -14.5q58 0 103 35t95 120l69 -46q-41 -81 -82 -128q-79 -90 -186 -90q-44 0 -92.5 17.5t-148.5 68.5q-137 71 -205 71q-105 0 -195 -155zM92 388l-69 47q39 76 79 123q80 93 191 93 q78 0 235 -81q88 -46 127.5 -60t78.5 -14q58 0 103 35t95 119l69 -47q-40 -79 -82 -127q-79 -90 -186 -90q-43 0 -93 17.5t-148 68.5q-83 42 -123.5 56t-81.5 14q-56 0 -101 -35.5t-94 -118.5z" />
<glyph unicode="&#x2260;" horiz-adv-x="975" d="M380 538h-290v72h324l68 146h-392v72h425l125 266l65 -30l-110 -236h290v-72h-324l-68 -146h392v-72h-425l-125 -266l-65 30z" />
<glyph unicode="&#x2264;" d="M955 1190v-116l-754 -305l754 -305v-116l-887 368v107zM955 288v-107h-887v107h887z" />
<glyph unicode="&#x2265;" d="M68 1190l887 -367v-107l-887 -368v116l754 305l-754 305v116zM68 288h887v-107h-887v107z" />
<glyph unicode="&#x25ca;" horiz-adv-x="1365" d="M683 1419l532 -736l-532 -736l-532 736zM683 1237l-404 -554l404 -555l403 555z" />
<glyph unicode="&#x25fc;" horiz-adv-x="1035" d="M0 1035h1035v-1035h-1035v1035z" />
<glyph unicode="&#xf000;" horiz-adv-x="1365" d="M983 1416q-2 -150 -86.5 -249t-217.5 -106q5 149 85.5 243t218.5 112zM1276 936q-88 -68 -126.5 -134.5t-38.5 -151.5q0 -101 54 -182t150 -123q-65 -160 -140 -257q-109 -143 -204 -143q-49 0 -132 38q-50 23 -106 23q-51 0 -75.5 -4.5t-71.5 -23.5q-82 -35 -125 -35 q-52 0 -111 44t-112 123q-172 255 -172 524q0 202 122 335q99 108 259 108q65 0 173 -41q57 -21 86 -21q30 0 119 33q91 33 155 33q190 0 296 -145z" />
<glyph unicode="&#xf001;" horiz-adv-x="963" d="M177 976h-131v59h131v184q0 132 89 201q98 75 257 75q121 0 301 -68l-31 -88q-151 90 -284 90q-112 0 -172 -56q-27 -26 -37.5 -58t-10.5 -89v-191h514q-6 -34 -6 -65v-906q0 -30 6 -64h-124q6 34 6 64v912h-396v-912q0 -30 6 -64h-124q6 33 6 64v912z" />
<glyph unicode="&#xf002;" horiz-adv-x="878" d="M177 976h-131v59h131v225q0 110 72 170q78 65 211 65q61 0 126 -12q63 -12 91 -12q12 0 30 3l110 21q-6 -34 -6 -64v-1367q0 -30 6 -64h-124q6 33 6 64v1311q-130 54 -240 54q-90 0 -130 -38t-40 -124v-232h344v-59h-344v-912q0 -30 6 -64h-124q6 33 6 64v912z" />
<glyph horiz-adv-x="975" />
<glyph horiz-adv-x="495" />
<glyph horiz-adv-x="495" />
<glyph horiz-adv-x="495" />
<glyph horiz-adv-x="495" />
<glyph horiz-adv-x="495" />
<glyph horiz-adv-x="495" />
<glyph horiz-adv-x="495" />
<glyph horiz-adv-x="495" />
<glyph horiz-adv-x="495" />
<glyph horiz-adv-x="495" />
<glyph horiz-adv-x="495" />
<glyph horiz-adv-x="495" />
<glyph horiz-adv-x="495" />
<glyph horiz-adv-x="495" />
<glyph horiz-adv-x="495" />
<glyph horiz-adv-x="495" />
<glyph horiz-adv-x="495" />
<glyph horiz-adv-x="495" />
<glyph horiz-adv-x="495" />
<glyph horiz-adv-x="495" />
<glyph horiz-adv-x="495" />
<glyph horiz-adv-x="495" />
<glyph horiz-adv-x="495" />
<glyph horiz-adv-x="495" />
<glyph horiz-adv-x="495" />
<glyph horiz-adv-x="495" />
<glyph horiz-adv-x="495" />
<glyph horiz-adv-x="495" />
<glyph horiz-adv-x="495" />
<glyph horiz-adv-x="495" />
<glyph horiz-adv-x="495" />
<glyph horiz-adv-x="495" />
<glyph d="M376 1638q41 0 68 -23t27 -58q0 -36 -26.5 -59.5t-67.5 -23.5q-43 0 -70 23t-27 59q0 35 27.5 58.5t68.5 23.5zM649 1642q41 0 68 -23t27 -58q0 -36 -26.5 -59.5t-67.5 -23.5q-43 0 -70 23t-27 59q0 35 27.5 58.5t68.5 23.5z" />
<glyph d="M463 -406l90 310h109l-136 -310h-63z" />
<glyph d="M513 1638q41 0 68 -23t27 -58q0 -36 -26.5 -59.5t-67.5 -23.5q-43 0 -70 23t-27 59q0 35 27.5 58.5t68.5 23.5z" />
<glyph d="M701 1714h93q-16 -69 -58 -122q-90 -112 -241 -112q-102 0 -174 63t-92 171h85q53 -152 190 -152q66 0 118.5 40.5t78.5 111.5z" />
<glyph d="M511 1777q69 0 116.5 -48t47.5 -117t-48 -117t-116 -48t-114 48q-48 50 -48 119q0 66 47.5 114t114.5 49zM511 1707q-40 0 -68.5 -28t-28.5 -66q0 -40 28.5 -68t68.5 -28q41 0 69.5 27.5t28.5 67.5t-28.5 67t-69.5 28z" />
<glyph d="M251 1533v105q94 31 154 31q51 0 214 -42q36 -9 58 -9q39 0 95 37v-107q-58 -23 -97 -23q-28 0 -161 34q-75 19 -121 19q-57 0 -142 -45z" />
<glyph d="M223 1461l245 251h103l230 -251h-109l-172 192l-183 -192h-114z" />
<glyph d="M512 1434l-199 292h130l132 -292h-63z" />
<glyph d="M421 1434l137 293h128l-200 -293h-65z" />
<glyph d="M223 1719h114l183 -192l172 192h109l-230 -251h-103z" />
<glyph d="M308 1638q41 0 68 -23t27 -58q0 -36 -26.5 -59.5t-67.5 -23.5q-43 0 -70 23t-27 59q0 35 27.5 58.5t68.5 23.5zM717 1642q42 0 68.5 -23t26.5 -58q0 -36 -26.5 -59.5t-67.5 -23.5q-43 0 -70 23t-27 59q0 35 27.5 58.5t68.5 23.5z" />
<glyph d="M376 1351q41 0 68 -23t27 -58q0 -36 -26.5 -59.5t-67.5 -23.5q-43 0 -70 23t-27 59q0 35 27.5 58.5t68.5 23.5zM649 1355q41 0 68 -23t27 -58q0 -36 -26.5 -59.5t-67.5 -23.5q-43 0 -70 23t-27 59q0 35 27.5 58.5t68.5 23.5z" />
<glyph horiz-adv-x="495" />
</font>
</defs>
</svg>
